.
Авторизация | Регистрация
Хочешь лучшие торренты? Добавь свой email!
Добавить

Торрент скачать бесплатно

» » Discovery: Золотая лихорадка / Gold Rush: 8 season (2017) HDTV [H.264] (1-5 серии из +1 спецвыпуск) [MP4|1920x1080] торрент скачать бесплатно




    Discovery: Золотая лихорадка / Gold Rush: 8 season (2017) HDTV [H.264] (1-5 серии из +1 спецвыпуск) [MP4|1920x1080] торрент скачать бесплатно

    Опубликовал: Админ | Дата: 22-11-2017, 05:00 | Просмотров: 0

    Телекомпания: Discovery Channel
    Жанр: Документальный, Телепередача
    Участники: Пол Кристи, Тодд Хоффман, Паркер Шнабель, Джек Хоффман, Дэйв Турин, Джим Тёрбер, Крис Думит, Тони Битс, Рик Несс, Митч Блашке

    Описание

    Для золотодобытчиков начинается новый сезон, и гонка за лидерство обещает быть более напряженной, чем когда-либо! После прошлогодней неудачи Тодд полон решимости нагнать соперников и стать первым в этом году. Он даже пошел на отчаянный шаг. Тодд заявил, что в новом сезоне сможет добыть больше золота, чем остальные. А если ему это не удастся, он должен будет отдать Перкеру… 100 унций драгоценного металла! А ведь это более $100 тысяч.
    Однако у Паркера есть и другие заботы. Он 4 годы добывает золото на земле Тони, и за это время выплатил ему уже $2, 3 млн! Теперь у него есть план, как выкупить собственную свободу благодаря хитрой сделке. Впереди много работы, и борьба будет по-настоящему жаркой!

    Возраст: 16+ (зрителям, достигшим 16 лет)
    Продолжительность: ~00: 42: 00 серия
    Качество видео: HDTV
    Перевод: Одноголосый закадровый, профессиональный
    Субтитры: отсутствуют
    Видео: AVC/H.264, 1920x1080, ~1434 kbps
    Аудио: AAC, 2 ch, 126 kbps

    Общее
    Полное имя
    Формат : MPEG-4
    Профиль формата : Base Media
    Идентификатор кодека : isom (isom/iso2/avc1/mp41)
    Размер файла : 486 Мбайт
    Продолжительность : 43 м. 24 с.
    Общий поток : 1566 Кбит/сек
    Программа кодирования : Lavf57.2.100
    Видео
    Идентификатор : 1
    Формат : AVC
    Формат/Информация : Advanced Video Codec
    Профиль формата : High@L4
    Настройки формата : CABAC/3 Ref Frames
    Параметр CABAC формата : Да
    Параметр RefFrames формата : 3 кадра
    Идентификатор кодека : avc1
    Идентификатор кодека/Информация : Advanced Video Coding
    Продолжительность : 43 м. 24 с.
    Битрейт : 1434 Кбит/сек
    Ширина : 1920 пикселей
    Высота : 1080 пикселей
    Соотношение сторон : 16: 9
    Режим частоты кадров : Постоянный
    Частота кадров : 25, 000 кадров/сек
    Цветовое пространство : YUV
    Субдискретизация насыщенности : 4: 2: 0
    Битовая глубина : 8 бит
    Тип развёртки : Прогрессивная
    Бит/(Пиксели*Кадры) : 0.028
    Размер потока : 445 Мбайт (92%)
    Цветовой диапазон : Limited
    Основные цвета : BT.709
    Характеристики трансфера : BT.709
    Коэффициенты матрицы : BT.709
    Аудио
    Идентификатор : 2
    Формат : AAC
    Формат/Информация : Advanced Audio Codec
    Профиль формата : LC
    Идентификатор кодека : mp4a-40-2
    Продолжительность : 43 м. 24 с.
    Вид битрейта : Постоянный
    Битрейт : 126 Кбит/сек
    Каналы : 2 канала
    Расположение каналов : Front: L R
    Частота : 44, 1 КГц
    Частота кадров : 43, 066 кадра/сек (1024 SPF)
    Метод сжатия : С потерями
    Размер потока : 39, 0 Мбайт (8%)
    Default : Да
    AlternateGroup/String : 1
    Скриншоты:


    Все одноименные релизы в Клубе
    Время раздачи: с 8: 30 до 23: 00 (до появления первых 3-5 скачавших)


    Discovery: Золотая лихорадка/Gold Rush: 8 season (2017) HDTV [H.264] (1-5 серии из +1 спецвыпуск) [MP4|1920x1080]
    загрузка...
    Рейтинг →
     (голосов: 1, оценка 5/5, голосовать можно 1 раз )

    Другие торренты по теме:

  • Discovery: Золотая лихорадка: 5 сезон / Gold Rush: 5 season (2014-2015) HDTVRip [H.264 / 1080p-LQ] (серии 1-12 из 20) скачать через торрент бесплатно
  • Discovery: Золотая лихорадка / Gold Rush (2016) HDTVRip (6 сезон: 1-4 серии из 10) [обновляемая]
  • Discovery: Золотая лихорадка / Gold Rush (2016) HDTVRip (6 сезон: 1-8 серии из 10) [обновляемая]


    • Комментарии (0):

      Информация

      Информация

        Посетители, находящиеся в группе Гости, не могут оставлять комментарии в данной новости.

        ↓ Меню




        ↓ Опрос

        Вы добавили сайт в закладки?
        Да
        Нет


        Top 10 за месяц (КПК и мобильные)