.
Авторизация | Регистрация
Хочешь лучшие торренты? Добавь свой email!
Добавить

Торрент скачать бесплатно

» » Омерзительная восьмерка / The Hateful Eight (2015) HDRip [H.264] [MP4|1920x698] торрент скачать бесплатно




    Омерзительная восьмерка / The Hateful Eight (2015) HDRip [H.264] [MP4|1920x698] торрент скачать бесплатно

    Опубликовал: Админ | Дата: 22-11-2017, 05:00 | Просмотров: 0

    Производство: США/The Weinstein Company LLC
    Жанр: Триллер, Драма, Криминал, Вестерн
    Режиссер: Квентин Тарантино
    Продюсер: Ричард Н. Гладштейн, Шеннон МакИнтош, Стейси Шер
    Актеры: Курт Рассел, Сэмюэл Л. Джексон, Тим Рот, Майкл Мэдсен, Дженнифер Джейсон Ли, Ченнинг Татум, Уолтон Гоггинс, Зои Белл

    Описание

    США после Гражданской войны. Легендарный охотник за головами Джон Рут по кличке Вешатель конвоирует заключенную. По пути к ним прибиваются еще несколько путешественников. Снежная буря вынуждает компанию искать укрытие в лавке на отшибе, где уже расположилось весьма пестрое общество: генерал конфедератов, мексиканец, ковбой… И один из них — не тот, за кого себя выдает.

    Возраст: 18+ (зрителям, достигшим 18 лет. запрещено для детей)
    Рейтинг MPAA: R (лицам до 17 лет обязательно присутствие взрослого)
    Дата мировой премьеры: 7 декабря 2015
    Дата российской премьеры: 14 января 2016, Централ Партнершип
    Продолжительность: 02: 40: 52
    Качество видео: HDRip
    Перевод: Дублированный (Лицензия BD RUS)
    Субтитры: Отсутствуют
    Видео: AVC/H.264, 1920x698, ~1726 Kbps
    Аудио: AC3, 6 ch, 384 kbps

    Общее
    Полное имя : E: DownloadОмерзительная восьмерка 2015 1080p.mp4
    Формат : MPEG-4
    Профиль формата : Base Media
    Идентификатор кодека : isom (isom/avc1/iso6)
    Размер файла : 2, 37 Гбайт
    Продолжительность : 2 ч. 40 м.
    Общий поток : 2112 Кбит/сек
    Дата кодирования : UTC 2017-11-20 09: 22: 17
    Дата пометки : UTC 2017-11-20 09: 22: 17
    Видео
    Идентификатор : 1
    Формат : AVC
    Формат/Информация : Advanced Video Codec
    Профиль формата : High@L4
    Настройки формата : CABAC/2 Ref Frames
    Параметр CABAC формата : Да
    Параметр RefFrames формата : 2 кадра
    Идентификатор кодека : avc1
    Идентификатор кодека/Информация : Advanced Video Coding
    Продолжительность : 2 ч. 40 м.
    Битрейт : 1726 Кбит/сек
    Максимальный битрейт : 16, 4 Мбит/сек
    Ширина : 1920 пикселей
    Высота : 698 пикселей
    Соотношение сторон : 2, 751
    Режим частоты кадров : Постоянный
    Частота кадров : 25, 000 кадров/сек
    Цветовое пространство : YUV
    Субдискретизация насыщенности : 4: 2: 0
    Битовая глубина : 8 бит
    Тип развёртки : Прогрессивная
    Бит/(Пиксели*Кадры) : 0.052
    Размер потока : 1, 94 Гбайт (82%)
    Дата кодирования : UTC 2017-11-20 09: 22: 17
    Дата пометки : UTC 2017-11-20 09: 32: 33
    Цветовой диапазон : Limited
    Основные цвета : BT.709
    Характеристики трансфера : BT.709
    Коэффициенты матрицы : BT.709
    Аудио
    Идентификатор : 2
    Формат : AC-3
    Формат/Информация : Audio Coding 3
    Параметр Endianness формата : Big
    Идентификатор кодека : ac-3
    Продолжительность : 2 ч. 40 м.
    Вид битрейта : Постоянный
    Битрейт : 384 Кбит/сек
    Максимальный битрейт : 406 Кбит/сек
    Каналы : 6 каналов
    Расположение каналов : Front: L C R, Side: L R, LFE
    Частота : 48, 0 КГц
    Частота кадров : 31, 250 кадров/сек (1536 SPF)
    Битовая глубина : 16 бит
    Метод сжатия : С потерями
    Размер потока : 442 Мбайт (18%)
    Заголовок : Дублированный (Лицензия BD RUS)
    Язык : Russian
    ServiceKind/String : Complete Main
    Дата кодирования : UTC 2017-11-20 09: 29: 29
    Дата пометки : UTC 2017-11-20 09: 32: 33
    Скриншоты:


    Все одноименные релизы в Клубе
    Время раздачи: с 10: 00 до 22: 00 (до появления первых 3-5 скачавших)


    Омерзительная восьмерка/The Hateful Eight (2015) HDRip [H.264] [MP4|1920x698]
    загрузка...
    Рейтинг →
     (голосов: 1, оценка 4/5, голосовать можно 1 раз )

    Другие торренты по теме:

  • Омерзительная восьмерка / The Hateful Eight (2015) WEBRip [H.264 / 1080p] [Трейлер] скачать через торрент бесплатно
  • Омерзительная восьмерка / The Hateful Eight (2015) DVDScr [EN] скачать через торрент бесплатно
  • Омерзительная восьмерка / The Hateful Eight (2015) DVDScr скачать через торрент бесплатно
  • Омерзительная восьмерка / The Hateful Eight (2015) DVDScr [AVO]
  • Омерзительная восьмерка / The Hateful Eight (2015) DVDScr [Звук с TS]
  • Омерзительная восьмерка / The Hateful Eight (2015) BDRip [H.264 / 720p] [Line]
  • Омерзительная восьмерка / The Hateful Eight (2015) BDRip [H.264 / 1080p] [Line]
  • Омерзительная восьмерка / The Hateful Eight (2015) HDRip [H.264] [Line]


    • Комментарии (0):

      Информация

      Информация

        Посетители, находящиеся в группе Гости, не могут оставлять комментарии в данной новости.

        ↓ Меню




        ↓ Опрос

        Вы добавили сайт в закладки?
        Да
        Нет


        Top 10 за месяц (КПК и мобильные)