.
Авторизация | Регистрация
Хочешь лучшие торренты? Добавь свой email!
Добавить

Торрент скачать бесплатно

» » Омерзительная восьмерка / The Hateful Eight (2015) HDRip [H.264] [MP4|1280x466] торрент скачать бесплатно




    Омерзительная восьмерка / The Hateful Eight (2015) HDRip [H.264] [MP4|1280x466] торрент скачать бесплатно

    Опубликовал: Админ | Дата: 21-11-2017, 05:00 | Просмотров: 1

    Производство: США/The Weinstein Company LLC
    Жанр: Триллер, Драма, Криминал, Вестерн
    Режиссер: Квентин Тарантино
    Продюсер: Ричард Н. Гладштейн, Шеннон МакИнтош, Стейси Шер
    Актеры: Курт Рассел, Сэмюэл Л. Джексон, Тим Рот, Майкл Мэдсен, Дженнифер Джейсон Ли, Ченнинг Татум, Уолтон Гоггинс, Зои Белл

    Описание

    США после Гражданской войны. Легендарный охотник за головами Джон Рут по кличке Вешатель конвоирует заключенную. По пути к ним прибиваются еще несколько путешественников. Снежная буря вынуждает компанию искать укрытие в лавке на отшибе, где уже расположилось весьма пестрое общество: генерал конфедератов, мексиканец, ковбой… И один из них — не тот, за кого себя выдает.

    Возраст: 18+ (зрителям, достигшим 18 лет. запрещено для детей)
    Рейтинг MPAA: R (лицам до 17 лет обязательно присутствие взрослого)
    Дата мировой премьеры: 7 декабря 2015
    Дата российской премьеры: 14 января 2016, Централ Партнершип
    Продолжительность: 02: 40: 52
    Качество видео: HDRip
    Перевод: Дублированный (Лицензия BD RUS)
    Субтитры: Отсутствуют
    Видео: AVC/H.264, 1280x466, ~904 Kbps
    Аудио: AAC, 2 ch, ~129 kbps

    Общее
    Полное имя : E: DownloadОмерзительная восьмерка 2015 720p.mp4
    Формат : MPEG-4
    Профиль формата : Base Media
    Идентификатор кодека : isom (isom/avc1)
    Размер файла : 1, 16 Гбайт
    Продолжительность : 2 ч. 40 м.
    Режим общего битрейта : Переменный
    Общий поток : 1036 Кбит/сек
    Дата кодирования : UTC 2017-11-20 10: 06: 25
    Дата пометки : UTC 2017-11-20 10: 06: 25
    Видео
    Идентификатор : 1
    Формат : AVC
    Формат/Информация : Advanced Video Codec
    Профиль формата : High@L3.1
    Настройки формата : CABAC/1 Ref Frames
    Параметр CABAC формата : Да
    Параметр RefFrames формата : 1 кадр
    Параметр GOP формата : M=1, N=60
    Идентификатор кодека : avc1
    Идентификатор кодека/Информация : Advanced Video Coding
    Продолжительность : 2 ч. 40 м.
    Битрейт : 904 Кбит/сек
    Максимальный битрейт : 6537 Кбит/сек
    Ширина : 1280 пикселей
    Высота : 466 пикселей
    Соотношение сторон : 2, 747
    Режим частоты кадров : Постоянный
    Частота кадров : 25, 000 кадров/сек
    Цветовое пространство : YUV
    Субдискретизация насыщенности : 4: 2: 0
    Битовая глубина : 8 бит
    Тип развёртки : Прогрессивная
    Бит/(Пиксели*Кадры) : 0.061
    Размер потока : 1, 02 Гбайт (87%)
    Дата кодирования : UTC 2017-11-20 10: 06: 25
    Дата пометки : UTC 2017-11-20 10: 10: 58
    Цветовой диапазон : Limited
    Основные цвета : BT.709
    Характеристики трансфера : BT.709
    Коэффициенты матрицы : BT.709
    Аудио
    Идентификатор : 2
    Формат : AAC
    Формат/Информация : Advanced Audio Codec
    Профиль формата : Main
    Идентификатор кодека : mp4a-40-1
    Продолжительность : 2 ч. 40 м.
    Вид битрейта : Переменный
    Битрейт : 129 Кбит/сек
    Максимальный битрейт : 143 Кбит/сек
    Каналы : 2 канала
    Расположение каналов : Front: L R
    Частота : 48, 0 КГц
    Частота кадров : 46, 875 кадров/сек (1024 SPF)
    Метод сжатия : С потерями
    Размер потока : 148 Мбайт (12%)
    Заголовок : Дублированный (Лицензия BD RUS)
    Язык : Russian
    Дата кодирования : UTC 2017-11-20 10: 10: 14
    Дата пометки : UTC 2017-11-20 10: 10: 58
    Скриншоты:


    Все одноименные релизы в Клубе
    Время раздачи: с 10: 00 до 22: 00 (до появления первых 3-5 скачавших)


    Омерзительная восьмерка/The Hateful Eight (2015) HDRip [H.264] [MP4|1280x466]
    загрузка...
    Рейтинг →
     (голосов: 1, оценка 5/5, голосовать можно 1 раз )

    Другие торренты по теме:

  • Омерзительная восьмерка / The Hateful Eight (2015) WEBRip [H.264 / 1080p] [Трейлер] скачать через торрент бесплатно
  • Омерзительная восьмерка / The Hateful Eight (2015) DVDScr [EN] скачать через торрент бесплатно
  • Омерзительная восьмерка / The Hateful Eight (2015) DVDScr скачать через торрент бесплатно
  • Омерзительная восьмерка / The Hateful Eight (2015) DVDScr [AVO]
  • Омерзительная восьмерка / The Hateful Eight (2015) DVDScr [Звук с TS]
  • Омерзительная восьмерка / The Hateful Eight (2015) BDRip [H.264 / 720p] [Line]
  • Омерзительная восьмерка / The Hateful Eight (2015) BDRip [H.264 / 1080p] [Line]
  • Омерзительная восьмерка / The Hateful Eight (2015) HDRip [H.264] [Line]


    • Комментарии (0):

      Информация

      Информация

        Посетители, находящиеся в группе Гости, не могут оставлять комментарии в данной новости.

        ↓ Меню




        ↓ Опрос

        Вы добавили сайт в закладки?
        Да
        Нет


        Top 10 за месяц (КПК и мобильные)