.
Авторизация | Регистрация
Хочешь лучшие торренты? Добавь свой email!
Добавить

Торрент скачать бесплатно

» » Kingsman: Секретная служба / Kingsman: The Secret Service (2014) HDRip [H.264] [MP4|1280x536] торрент скачать бесплатно




    Kingsman: Секретная служба / Kingsman: The Secret Service (2014) HDRip [H.264] [MP4|1280x536] торрент скачать бесплатно

    Опубликовал: Админ | Дата: 20-11-2017, 05:00 | Просмотров: 0

    Производство: Великобритания, Twentieth Century Fox Film Corporation, Marv Films, TSG Entertainment
    Жанр: Боевик, Комедия, Криминал, Приключения
    Режиссер: Мэттью Вон
    Продюсер: Адам Болинг, Дэвид Рейд, Мэттью Вон
    Актеры: Тэрон Эджертон, Колин Фёрт, Сэмюэл Л. Джексон, Марк Стронг, Софи Куксон, Майкл Кейн, София Бутелла, Саманта Янус, Джофф Белл, Марк Хэмилл, Джек Девенпорт, Эдвард Холкрофт

    Описание

    Эггси — молодой парень, который прошел службу в морской пехоте и имеет очень высокий уровень интеллекта. Он мог бы добиться многого, но выбрал другой путь и стал мелким преступником. Однажды он знакомится с Гарри Хартом, которому его отец когда-то спас жизнь. Этот человек решил сделать все возможное, чтобы сделать жизнь Эггси лучше и открыть для него новые возможности.
    Гарри рассказал ему, что является агентом секретной независимой организации, которая стоит на защите всего мира. Он предложил парню пройти обучение и стать новым членом их команды. Эггси принял предложение Харта, но сможет ли он справиться со всеми испытаниями и оправдать его надежды?..

    Возраст: 18+ (зрителям, достигшим 18 лет. запрещено для детей)
    Рейтинг MPAA: R (лицам до 17 лет обязательно присутствие взрослого)
    Дата мировой премьеры: 13 декабря 2014
    Дата российской премьеры: 12 февраля 2015, Двадцатый Век Фокс СНГ
    Продолжительность: 02: 08: 44
    Качество видео: HDRip
    Перевод: Дублированный (Лицензия BD EUR)
    Субтитры: Русские (форсированные, полные), Английские (форсированные, полные)
    Видео: AVC/H.264, 1280x536, ~1198 Kbps
    Аудио: AAC, 2 ch, ~192 kbps

    Общее
    Полное имя : E: DownloadKingsman Секретная служба 2014 720p.mp4
    Формат : MPEG-4
    Профиль формата : Base Media
    Идентификатор кодека : isom (isom)
    Размер файла : 1, 25 Гбайт
    Продолжительность : 2 ч. 8 м.
    Режим общего битрейта : Переменный
    Общий поток : 1393 Кбит/сек
    Дата кодирования : UTC 2017-11-19 11: 08: 20
    Дата пометки : UTC 2017-11-19 11: 08: 20
    Видео
    Идентификатор : 1
    Формат : AVC
    Формат/Информация : Advanced Video Codec
    Профиль формата : High@L3.1
    Настройки формата : CABAC/1 Ref Frames
    Параметр CABAC формата : Да
    Параметр RefFrames формата : 1 кадр
    Параметр GOP формата : M=1, N=60
    Идентификатор кодека : avc1
    Идентификатор кодека/Информация : Advanced Video Coding
    Продолжительность : 2 ч. 8 м.
    Битрейт : 1198 Кбит/сек
    Максимальный битрейт : 8004 Кбит/сек
    Ширина : 1280 пикселей
    Высота : 536 пикселей
    Соотношение сторон : 2, 40: 1
    Режим частоты кадров : Постоянный
    Частота кадров : 23, 976 (24000/1001) кадра/сек
    Цветовое пространство : YUV
    Субдискретизация насыщенности : 4: 2: 0
    Битовая глубина : 8 бит
    Тип развёртки : Прогрессивная
    Бит/(Пиксели*Кадры) : 0.073
    Размер потока : 1, 08 Гбайт (86%)
    Дата пометки : UTC 2017-11-19 11: 14: 59
    Цветовой диапазон : Limited
    Основные цвета : BT.709
    Характеристики трансфера : BT.709
    Коэффициенты матрицы : BT.709
    Аудио
    Идентификатор : 2
    Формат : AAC
    Формат/Информация : Advanced Audio Codec
    Профиль формата : LC
    Идентификатор кодека : mp4a-40-2
    Продолжительность : 2 ч. 8 м.
    Вид битрейта : Переменный
    Битрейт : 192 Кбит/сек
    Максимальный битрейт : 201 Кбит/сек
    Каналы : 2 канала
    Расположение каналов : Front: L R
    Частота : 44, 1 КГц
    Частота кадров : 43, 066 кадра/сек (1024 SPF)
    Метод сжатия : С потерями
    Размер потока : 177 Мбайт (14%)
    Язык : Russian
    Дата кодирования : UTC 2017-11-18 14: 17: 10
    Дата пометки : UTC 2017-11-19 11: 14: 59
    Текст #1
    Идентификатор : 3
    Формат : Timed Text
    Идентификатор кодека : tx3g
    Продолжительность : 2 ч. 2 м.
    Вид битрейта : Переменный
    Битрейт : 2 бит/сек
    Размер потока : 2, 10 Кбайт (0%)
    Заголовок : Forced
    Язык : Russian
    Forced : Нет
    Дата кодирования : UTC 2017-11-19 11: 14: 58
    Дата пометки : UTC 2017-11-19 11: 14: 59
    Текст #2
    Идентификатор : 4
    Формат : Timed Text
    Идентификатор кодека : tx3g
    Продолжительность : 2 ч. 8 м.
    Вид битрейта : Переменный
    Битрейт : 100 бит/сек
    Размер потока : 94, 2 Кбайт (0%)
    Заголовок : Full
    Язык : Russian
    Forced : Нет
    Дата кодирования : UTC 2017-11-19 11: 14: 58
    Дата пометки : UTC 2017-11-19 11: 14: 59
    Текст #3
    Идентификатор : 5
    Формат : Timed Text
    Идентификатор кодека : tx3g
    Продолжительность : 44 м. 10 с.
    Вид битрейта : Переменный
    Битрейт : 1 бит/сек
    Размер потока : 328 байт (0%)
    Заголовок : Forced
    Язык : English
    Forced : Нет
    Дата кодирования : UTC 2017-11-19 11: 14: 58
    Дата пометки : UTC 2017-11-19 11: 14: 59
    Текст #4
    Идентификатор : 6
    Формат : Timed Text
    Идентификатор кодека : tx3g
    Продолжительность : 2 ч. 1 м.
    Вид битрейта : Переменный
    Битрейт : 71 бит/сек
    Размер потока : 63, 7 Кбайт (0%)
    Заголовок : Full
    Язык : English
    Forced : Нет
    Дата кодирования : UTC 2017-11-19 11: 14: 58
    Дата пометки : UTC 2017-11-19 11: 14: 59
    Скриншоты:


    Все одноименные релизы в Клубе
    Время раздачи: с 10: 00 до 22: 00 (до появления первых 3-5 скачавших)


    Kingsman: Секретная служба/Kingsman: The Secret Service (2014) HDRip [H.264] [MP4|1280x536]
    загрузка...
    Рейтинг →
     (голосов: 1, оценка 5/5, голосовать можно 1 раз )

    Другие торренты по теме:

  • Kingsman: Секретная служба / Kingsman: The Secret Service (2014) CAMRip
  • Kingsman: Секретная служба / Kingsman: The Secret Service (2014) CAMRip
  • Kingsman: Секретная служба / Kingsman: The Secret Service (2014) CAMRip
  • Henry Jackman & Matthew Margeson - Kingsman: Секретная служба / Kingsman: The Secret Service (Original Motion Picture Score) (2015) [MP3|320 кб / с]<Soundtrack> скачать через торрент бесплатно
  • Kingsman: Секретная служба / Kingsman: The Secret Service (2014) CamRip [Proper] скачать через торрент бесплатно
  • Kingsman: Секретная служба / Kingsman: The Secret Service (2014) HDTVRip [H.264 / 1080p-LQ] [Line] скачать через торрент бесплатно
  • Kingsman: Секретная служба / Kingsman: The Secret Service (2014) HDTVRip [Line] скачать через торрент бесплатно
  • Kingsman: Секретная служба / Kingsman: The Secret Service (2014) HDTVRip [Line] скачать через торрент бесплатно


    • Комментарии (0):

      Информация

      Информация

        Посетители, находящиеся в группе Гости, не могут оставлять комментарии в данной новости.

        ↓ Меню




        ↓ Опрос

        Вы добавили сайт в закладки?
        Да
        Нет


        Top 10 за месяц (КПК и мобильные)