.
Авторизация | Регистрация
Хочешь лучшие торренты? Добавь свой email!
Добавить

Торрент скачать бесплатно

» » Иллюзия обмана 2 / Now You See Me 2 (2016) BDRip [H.264] [MP4|1920x1080] торрент скачать бесплатно




    Иллюзия обмана 2 / Now You See Me 2 (2016) BDRip [H.264] [MP4|1920x1080] торрент скачать бесплатно

    Опубликовал: Админ | Дата: 18-11-2017, 05:00 | Просмотров: 0

    Производство: США, Китай, Великобритания, Канада/Lionsgate, Summit Entertainment
    Жанр: Боевик, Триллер, Комедия, Криминал
    Режиссер: Джон М. Чу
    Продюсер: Бобби Коэн, Алекс Куртцман, Роберто Орси
    Актеры: Джесси Айзенберг, Лиззи Каплан, Дэниэл Рэдклифф, Марк Руффало, Морган Фримен, Майкл Кейн, Вуди Харрельсон, Дэйв Франко, Санаа Лэтэн

    Описание

    Четыре всадника, команда лучших иллюзионистов мира, снова в сборе! Их магия стала еще совершеннее, а враги — опаснее. На сей раз им предстоит спасти свою репутацию и вывести на чистую воду жестокого техномагната…

    Возраст: 12+ (зрителям, достигшим 12 лет)
    Рейтинг MPAA: PG-13 (детям до 13 лет просмотр нежелателен)
    Дата мировой премьеры: 2 июня 2016
    Дата российской премьеры: 9 июня 2016, Централ Партнершип
    Продолжительность: 02: 09: 29
    Качество видео: BDRip
    Перевод: Дублированный (Лицензия BD RUS)
    Субтитры: отсутствуют
    Видео: AVC/H.264, 1920x1080, ~2913 Kbps
    Аудио: AC3, 6 ch, 384 kbps

    Общее
    Полное имя : E: DownloadИллюзия обмана 2 2016 1080p.mp4
    Формат : MPEG-4
    Профиль формата : Base Media
    Идентификатор кодека : isom (isom/avc1/iso6)
    Размер файла : 2, 98 Гбайт
    Продолжительность : 2 ч. 9 м.
    Общий поток : 3299 Кбит/сек
    Дата кодирования : UTC 2017-11-15 07: 07: 53
    Дата пометки : UTC 2017-11-15 07: 07: 53
    Видео
    Идентификатор : 1
    Формат : AVC
    Формат/Информация : Advanced Video Codec
    Профиль формата : High@L4
    Настройки формата : CABAC/2 Ref Frames
    Параметр CABAC формата : Да
    Параметр RefFrames формата : 2 кадра
    Идентификатор кодека : avc1
    Идентификатор кодека/Информация : Advanced Video Coding
    Продолжительность : 2 ч. 9 м.
    Битрейт : 2913 Кбит/сек
    Максимальный битрейт : 10, 8 Мбит/сек
    Ширина : 1920 пикселей
    Высота : 1080 пикселей
    Соотношение сторон : 16: 9
    Режим частоты кадров : Постоянный
    Частота кадров : 24, 000 кадра/сек
    Цветовое пространство : YUV
    Субдискретизация насыщенности : 4: 2: 0
    Битовая глубина : 8 бит
    Тип развёртки : Прогрессивная
    Бит/(Пиксели*Кадры) : 0.059
    Размер потока : 2, 64 Гбайт (88%)
    Дата кодирования : UTC 2017-11-15 07: 07: 53
    Дата пометки : UTC 2017-11-15 07: 10: 04
    Цветовой диапазон : Limited
    Основные цвета : BT.709
    Характеристики трансфера : BT.709
    Коэффициенты матрицы : BT.709
    Аудио
    Идентификатор : 2
    Формат : AC-3
    Формат/Информация : Audio Coding 3
    Параметр Endianness формата : Big
    Идентификатор кодека : ac-3
    Продолжительность : 2 ч. 9 м.
    Вид битрейта : Постоянный
    Битрейт : 384 Кбит/сек
    Максимальный битрейт : 406 Кбит/сек
    Каналы : 6 каналов
    Расположение каналов : Front: L C R, Side: L R, LFE
    Частота : 48, 0 КГц
    Частота кадров : 31, 250 кадров/сек (1536 SPF)
    Битовая глубина : 16 бит
    Метод сжатия : С потерями
    Размер потока : 356 Мбайт (12%)
    Заголовок : Дублированный (Лицензия BD RUS)
    Язык : Russian
    ServiceKind/String : Complete Main
    Дата кодирования : UTC 2017-11-15 07: 09: 43
    Дата пометки : UTC 2017-11-15 07: 10: 04
    Скриншоты:


    Все одноименные релизы в Клубе
    Время раздачи: с 10: 00 до 22: 00 (до появления первых 3-5 скачавших)


    Иллюзия обмана 2/Now You See Me 2 (2016) BDRip [H.264] [MP4|1920x1080]
    загрузка...
    Рейтинг →
     (голосов: 1, оценка 3/5, голосовать можно 1 раз )

    Другие торренты по теме:

  • Иллюзия обмана: Второй акт / Now You See Me 2 (2016) WEBRip [H.264 / 1080p] [Тизер] [EN] скачать через торрент бесплатно
  • Brian Tyler - Иллюзия обмана 2 / Now You See Me 2 (Original Motion Picture Soundtrack) (2016) [AAC|WEB-DL|256 кб / с]<Soundtrack>
  • Иллюзия обмана 2 / Now You See Me 2 (2016) CamRip
  • Brian Tyler - Иллюзия обмана / Now You See Me (Original Motion Picture Soundtrack) (2013) [AAC|WEB-DL|256 кб / с]<Soundtrack>
  • Brian Tyler - Now You See Me / Иллюзия обмана (Complete Motion Picture Score) (2013) [MP3|320 кб / с]<Score>
  • Иллюзия обмана 2 / Now You See Me 2 (2016) CamRip
  • Иллюзия обмана 2 / Now You See Me 2 (2016)
  • Иллюзия обмана 2 / Now You See Me 2 (2016) BDRip [H.264 / 720p]


    • Комментарии (0):

      Информация

      Информация

        Посетители, находящиеся в группе Гости, не могут оставлять комментарии в данной новости.

        ↓ Меню




        ↓ Опрос

        Вы добавили сайт в закладки?
        Да
        Нет


        Top 10 за месяц (КПК и мобильные)