.
Авторизация | Регистрация
Хочешь лучшие торренты? Добавь свой email!
Добавить

Торрент скачать бесплатно

» » А.М. Черепащук. Лекция «Как увидеть чёрную дыру» (2017) WEBRip [H.264] [MP4|1920x1080] торрент скачать бесплатно




    А.М. Черепащук. Лекция «Как увидеть чёрную дыру» (2017) WEBRip [H.264] [MP4|1920x1080] торрент скачать бесплатно

    Опубликовал: Админ | Дата: 18-11-2017, 05:00 | Просмотров: 0

    Жанр: Лекция, Документальный
    Ведущий: А.М. Черепащук

    Описание

    В последние годы достигнуты большие успехи в исследовании черных дыр как методами межконтинентальной радиоинтерферометрии с угловым разрешением лучше 10-5 секунды дуги, так и методами гравитационно-волновой астрономии. Исследование стадии затухающего звона в гравитационно-волновом сигнале при образовании горизонта событий черной дыры, сформировавшейся в результате слияния двух черных дыр меньших масс, дает принципиальную возможность окончательного доказательства наличия горизонта событий у черных дыр звездных масс.
    С другой стороны, результаты наблюдений центра нашей Галактики с помощью системы EHT (Event Horizon Telescope — телескоп для наблюдений горизонтов событий черных дыр) позволяют надеяться, что в скором времени будет получено изображение темной тени от сверхмассивной черной дыры на ярком фоне аккреционного диска.
    Продолжительность: 01: 31: 35
    Качество видео: WEBRip
    Субтитры: Отсутствуют
    Видео: AVC/H.264, 1920x1080, ~542 Kbps
    Аудио: AAC, 2 ch, 126 Kbps

    Общее
    Полное имя : C: А.М. Черепащук. Лекция Как увидеть чёрную дыру.mp4
    Формат : MPEG-4
    Профиль формата : Base Media
    Идентификатор кодека : isom (isom/iso2/avc1/mp41)
    Размер файла : 443 Мбайт
    Продолжительность : 1 ч. 31 м.
    Общий поток : 674 Кбит/сек
    Программа кодирования : Lavf56.40.101
    Видео
    Идентификатор : 1
    Формат : AVC
    Формат/Информация : Advanced Video Codec
    Профиль формата : High@L4
    Настройки формата : CABAC/3 Ref Frames
    Параметр CABAC формата : Да
    Параметр RefFrames формата : 3 кадра
    Идентификатор кодека : avc1
    Идентификатор кодека/Информация : Advanced Video Coding
    Продолжительность : 1 ч. 31 м.
    Duration_FirstFrame : -40 мс.
    Битрейт : 542 Кбит/сек
    Ширина : 1920 пикселей
    Высота : 1080 пикселей
    Соотношение сторон : 16: 9
    Режим частоты кадров : Переменный
    Частота кадров : 25, 000 кадров/сек
    Минимальная частота кадров : 25, 000 кадров/сек
    Максимальная частота кадров : 25, 014 кадров/сек
    Цветовое пространство : YUV
    Субдискретизация насыщенности : 4: 2: 0
    Битовая глубина : 8 бит
    Тип развёртки : Прогрессивная
    Бит/(Пиксели*Кадры) : 0.010
    Размер потока : 356 Мбайт (80%)
    Цветовой диапазон : Limited
    Основные цвета : BT.709
    Характеристики трансфера : BT.709
    Коэффициенты матрицы : BT.709
    Аудио
    Идентификатор : 2
    Формат : AAC
    Формат/Информация : Advanced Audio Codec
    Профиль формата : LC
    Идентификатор кодека : mp4a-40-2
    Продолжительность : 1 ч. 31 м.
    Вид битрейта : Постоянный
    Битрейт : 126 Кбит/сек
    Каналы : 2 канала
    Расположение каналов : Front: L R
    Частота : 44, 1 КГц
    Частота кадров : 43, 066 кадра/сек (1024 SPF)
    Метод сжатия : С потерями
    Размер потока : 82, 6 Мбайт (19%)
    Default : Да
    AlternateGroup/String : 1
    Лекцию читает директор Государственного астрономического института им. П. К. Штернберга МГУ им. М.В. Ломоносова, академик РАН, члена Ученого совета Планетария.
    Скриншоты:


    А.М. Черепащук на трекере NNM-Club
    Время раздачи: по возможности (до появления первых 3-5 скачавших)


    А.М. Черепащук. Лекция «Как увидеть чёрную дыру» (2017) WEBRip [H.264] [MP4|1920x1080]
    загрузка...
    Рейтинг →
     (голосов: 1, оценка 5/5, голосовать можно 1 раз )

    Другие торренты по теме:

  • А.М. Черепащук. Лекция «История истории Вселенной» (2016) WEBRip [H.264] [MP4|1920х1080]
  • А.М. Черепащук. Лекция «Гравитационные волны и чёрные дыры» (2016) WEBRip [H.264] [MP4|1920x1080]


    • Комментарии (0):

      Информация

      Информация

        Посетители, находящиеся в группе Гости, не могут оставлять комментарии в данной новости.

        ↓ Меню




        ↓ Опрос

        Вы добавили сайт в закладки?
        Да
        Нет


        Top 10 за месяц (КПК и мобильные)