.
Авторизация | Регистрация
Хочешь лучшие торренты? Добавь свой email!
Добавить

Торрент скачать бесплатно

» » Безумный Макс: Дорога ярости / Mad Max: Fury Road (2015) HDRip [H.264] [MP4|1280x534] торрент скачать бесплатно




    Безумный Макс: Дорога ярости / Mad Max: Fury Road (2015) HDRip [H.264] [MP4|1280x534] торрент скачать бесплатно

    Опубликовал: Админ | Дата: 18-11-2017, 05:00 | Просмотров: 0

    Производство: Австралия, США/Kennedy Miller Productions, Village Roadshow Pictures
    Жанр: Боевик, Фантастика, Приключения
    Режиссер: Джордж Миллер
    Продюсер: Джордж Миллер, Даг Митчелл, П.Дж. Вотен
    Актеры: Том Харди, Шарлиз Терон, Николас Холт, Хью Кияс-Бёрн, Джош Хелман, Нэйтан Джонс, Зои Кравиц, Роузи Хантингтон-Уайтли, Райли Кио, Эбби Ли

    Описание

    Преследуемый призраками беспокойного прошлого, Макс уверен, что лучший способ выжить — скитаться в одиночестве. Несмотря на это, он присоединяется к бунтарям, бегущим через всю пустыню на боевой фуре, под предводительством военачальника Фуриосы.
    Они пытаются сбежать из Цитадели, страдающей от тирании Несмертного Джо, у которого они забрали кое-что очень ценное. Разъярённый военачальник бросает все свои силы на погоню за мятежниками, ступая на дорогу войны — дорогу ярости.

    Возраст: 16+ (зрителям, достигшим 16 лет)
    Рейтинг MPAA: R (лицам до 17 лет обязательно присутствие взрослого)
    Дата мировой премьеры: 7 мая 2015
    Дата российской премьеры: 14 мая 2015, Каро-Премьер 3D
    Продолжительность: 02: 00: 23
    Качество видео: HDRip
    Перевод: Дублированный (Лицензия BD CEE)
    Субтитры: Русские (форсированные, полные), Английские (SDH)
    Видео: AVC/H.264, 1280x534, ~1845 Kbps
    Аудио: AAC, 2 ch, ~192 kbps

    Общее
    Полное имя : E: DownloadБезумный Макс Дорога ярости 2015 720p.mp4
    Формат : MPEG-4
    Профиль формата : Base Media
    Идентификатор кодека : isom (isom)
    Размер файла : 1, 71 Гбайт
    Продолжительность : 2 ч. 0 м.
    Режим общего битрейта : Переменный
    Общий поток : 2039 Кбит/сек
    Дата кодирования : UTC 2017-11-16 07: 49: 24
    Дата пометки : UTC 2017-11-16 07: 49: 24
    Видео
    Идентификатор : 1
    Формат : AVC
    Формат/Информация : Advanced Video Codec
    Профиль формата : High@L3.1
    Настройки формата : CABAC/1 Ref Frames
    Параметр CABAC формата : Да
    Параметр RefFrames формата : 1 кадр
    Идентификатор кодека : avc1
    Идентификатор кодека/Информация : Advanced Video Coding
    Продолжительность : 2 ч. 0 м.
    Битрейт : 1845 Кбит/сек
    Максимальный битрейт : 10, 8 Мбит/сек
    Ширина : 1280 пикселей
    Высота : 534 пикселя
    Соотношение сторон : 2, 40: 1
    Режим частоты кадров : Постоянный
    Частота кадров : 23, 976 (24000/1001) кадра/сек
    Цветовое пространство : YUV
    Субдискретизация насыщенности : 4: 2: 0
    Битовая глубина : 8 бит
    Тип развёртки : Прогрессивная
    Бит/(Пиксели*Кадры) : 0.113
    Размер потока : 1, 55 Гбайт (90%)
    Дата пометки : UTC 2017-11-16 07: 51: 18
    Цветовой диапазон : Limited
    Основные цвета : BT.709
    Характеристики трансфера : BT.709
    Коэффициенты матрицы : BT.709
    Аудио
    Идентификатор : 2
    Формат : AAC
    Формат/Информация : Advanced Audio Codec
    Профиль формата : LC
    Идентификатор кодека : mp4a-40-2
    Продолжительность : 2 ч. 0 м.
    Вид битрейта : Переменный
    Битрейт : 192 Кбит/сек
    Максимальный битрейт : 202 Кбит/сек
    Каналы : 2 канала
    Расположение каналов : Front: L R
    Частота : 44, 1 КГц
    Частота кадров : 43, 066 кадра/сек (1024 SPF)
    Метод сжатия : С потерями
    Размер потока : 165 Мбайт (9%)
    Язык : Russian
    Дата кодирования : UTC 2017-11-14 12: 41: 23
    Дата пометки : UTC 2017-11-16 07: 51: 18
    Текст #1
    Идентификатор : 3
    Формат : Timed Text
    Идентификатор кодека : tx3g
    Продолжительность : 1 ч. 57 м.
    Вид битрейта : Переменный
    Битрейт : 0 бит/сек
    Размер потока : 440 байт (0%)
    Заголовок : Forced
    Язык : Russian
    Forced : Нет
    Дата кодирования : UTC 2017-11-16 07: 51: 18
    Дата пометки : UTC 2017-11-16 07: 51: 18
    Текст #2
    Идентификатор : 4
    Формат : Timed Text
    Идентификатор кодека : tx3g
    Продолжительность : 1 ч. 57 м.
    Вид битрейта : Переменный
    Битрейт : 38 бит/сек
    Размер потока : 32, 8 Кбайт (0%)
    Заголовок : Full
    Язык : Russian
    Forced : Нет
    Дата кодирования : UTC 2017-11-16 07: 51: 18
    Дата пометки : UTC 2017-11-16 07: 51: 18
    Текст #3
    Идентификатор : 5
    Формат : Timed Text
    Идентификатор кодека : tx3g
    Продолжительность : 1 ч. 51 м.
    Вид битрейта : Переменный
    Битрейт : 36 бит/сек
    Размер потока : 29, 5 Кбайт (0%)
    Заголовок : SDH
    Язык : English
    Forced : Нет
    Дата кодирования : UTC 2017-11-16 07: 51: 18
    Дата пометки : UTC 2017-11-16 07: 51: 18
    Скриншоты:


    Все одноименные релизы в Клубе
    Время раздачи: с 10: 00 до 22: 00 (до появления первых 3-5 скачавших)


    Безумный Макс: Дорога ярости/Mad Max: Fury Road (2015) HDRip [H.264] [MP4|1280x534]
    загрузка...
    Рейтинг →
     (голосов: 1, оценка 5/5, голосовать можно 1 раз )

    Другие торренты по теме:

  • Безумный Макс: Дорога ярости / Mad Max: Fury Road (2015) WEBRip [H.264 / 720p-LQ] [Трейлер]
  • Безумный Макс: Дорога ярости / Mad Max: Fury Road (2015) WEBRip [1080p] [Трейлер] [EN]
  • Безумный Макс / Mad Max (2014) WEBRip [H.264 / 1080p-LQ] [Трейлер]
  • Безумный Макс: Дорога ярости / Mad Max: Fury Road (2015) DCPRip [2K] [Трейлер]
  • Безумный Макс: Дорога ярости / Mad Max: Fury Road (2015) WEBRip [1080p] [Трейлер #2] скачать через торрент бесплатно
  • Безумный Макс: Дорога ярости / Mad Max: Fury Road (2015) WEBRip [1080p] [Трейлер #3] скачать через торрент бесплатно
  • Tom Holkenborg aka Junkie XL - Безумный Макс: Дорога ярости / Mad Max: Fury Road (Original Motion Picture Soundtrack) (2015) Deluxe Version [AAC|WEB-DL|256 кб / с]<Soundtrack> скачать через торрент бесплатно
  • Трилогия Безумный Макс / Trilogy Mad Max (1979 / 1981 / 1985) BDRip [H.264] скачать через торрент бесплатно


    • Комментарии (0):

      Информация

      Информация

        Посетители, находящиеся в группе Гости, не могут оставлять комментарии в данной новости.

        ↓ Меню




        ↓ Опрос

        Вы добавили сайт в закладки?
        Да
        Нет


        Top 10 за месяц (КПК и мобильные)