.
Авторизация | Регистрация
Хочешь лучшие торренты? Добавь свой email!
Добавить

Торрент скачать бесплатно

» » Парни со стволами / War Dogs (2016) HDRip [H.264] [MP4|1280x534] торрент скачать бесплатно




    Парни со стволами / War Dogs (2016) HDRip [H.264] [MP4|1280x534] торрент скачать бесплатно

    Опубликовал: Админ | Дата: 15-11-2017, 05:00 | Просмотров: 0

    Производство: США/22 Indiana Pictures, Green Hat Films, The Mark Gordon Company
    Жанр: Драма, Комедия, Криминал
    Режиссер: Тодд Филлипс
    Продюсер: Брэдли Купер, Марк Гордон, Скотт Будник
    Актеры: Майлз Теллер, Джона Хилл, Брэдли Купер, Ана де Армас, Кевин Поллак, Джейби Бланк, Шон Тоуб, Патрик Ст. Эсприт, Стив Лэнц, Грегг Уэйнер, Эдди Джемисон, Джулиан Сержи, Дэниэл Берсон, Эдсон Жан

    Описание

    Реальная история о приятелях-планокурах из Майами, умудрившихся выбить в Пентагоне контракт на 300 миллионов долларов на поставку оружия.

    Возраст: 18+ (зрителям, достигшим 18 лет. запрещено для детей)
    Рейтинг MPAA: R (лицам до 17 лет обязательно присутствие взрослого)
    Дата мировой премьеры: 3 августа 2016
    Дата российской премьеры: 18 августа 2016, Каро-Премьер
    Продолжительность: 01: 54: 12
    Качество видео: HDRip
    Перевод: Дублированный (Лицензия BD CEE)
    Субтитры: Русские (форсированные, полные), Английские (полные, SDH)
    Видео: AVC/H.264, 1280x534, ~1038 Kbps
    Аудио: AAC, 2 ch, ~192 kbps

    Общее
    Полное имя : E: DownloadПарни со стволами 2016 720p.mp4
    Формат : MPEG-4
    Профиль формата : Base Media
    Идентификатор кодека : isom (isom)
    Размер файла : 1008 Мбайт
    Продолжительность : 1 ч. 54 м.
    Режим общего битрейта : Переменный
    Общий поток : 1233 Кбит/сек
    Дата кодирования : UTC 2017-11-13 07: 59: 56
    Дата пометки : UTC 2017-11-13 07: 59: 56
    Видео
    Идентификатор : 1
    Формат : AVC
    Формат/Информация : Advanced Video Codec
    Профиль формата : High@L3.1
    Настройки формата : CABAC/1 Ref Frames
    Параметр CABAC формата : Да
    Параметр RefFrames формата : 1 кадр
    Идентификатор кодека : avc1
    Идентификатор кодека/Информация : Advanced Video Coding
    Продолжительность : 1 ч. 54 м.
    Битрейт : 1038 Кбит/сек
    Максимальный битрейт : 6442 Кбит/сек
    Ширина : 1280 пикселей
    Высота : 534 пикселя
    Соотношение сторон : 2, 40: 1
    Режим частоты кадров : Постоянный
    Частота кадров : 23, 976 (24000/1001) кадра/сек
    Цветовое пространство : YUV
    Субдискретизация насыщенности : 4: 2: 0
    Битовая глубина : 8 бит
    Тип развёртки : Прогрессивная
    Бит/(Пиксели*Кадры) : 0.063
    Размер потока : 848 Мбайт (84%)
    Дата пометки : UTC 2017-11-13 08: 02: 26
    Цветовой диапазон : Limited
    Основные цвета : BT.709
    Характеристики трансфера : BT.709
    Коэффициенты матрицы : BT.709
    Аудио
    Идентификатор : 2
    Формат : AAC
    Формат/Информация : Advanced Audio Codec
    Профиль формата : LC
    Идентификатор кодека : mp4a-40-2
    Продолжительность : 1 ч. 54 м.
    Вид битрейта : Переменный
    Битрейт : 192 Кбит/сек
    Максимальный битрейт : 202 Кбит/сек
    Каналы : 2 канала
    Расположение каналов : Front: L R
    Частота : 44, 1 КГц
    Частота кадров : 43, 066 кадра/сек (1024 SPF)
    Метод сжатия : С потерями
    Размер потока : 157 Мбайт (16%)
    Язык : Russian
    Дата кодирования : UTC 2017-11-11 10: 20: 54
    Дата пометки : UTC 2017-11-13 08: 02: 26
    Текст #1
    Идентификатор : 3
    Формат : Timed Text
    Идентификатор кодека : tx3g
    Продолжительность : 1 ч. 49 м.
    Вид битрейта : Переменный
    Битрейт : 2 бит/сек
    Размер потока : 1, 92 Кбайт (0%)
    Заголовок : Forced
    Язык : Russian
    Forced : Нет
    Дата кодирования : UTC 2017-11-13 08: 02: 26
    Дата пометки : UTC 2017-11-13 08: 02: 26
    Текст #2
    Идентификатор : 4
    Формат : Timed Text
    Идентификатор кодека : tx3g
    Продолжительность : 1 ч. 54 м.
    Вид битрейта : Переменный
    Битрейт : 112 бит/сек
    Размер потока : 93, 9 Кбайт (0%)
    Заголовок : Full
    Язык : Russian
    Forced : Нет
    Дата кодирования : UTC 2017-11-13 08: 02: 26
    Дата пометки : UTC 2017-11-13 08: 02: 26
    Текст #3
    Идентификатор : 5
    Формат : Timed Text
    Идентификатор кодека : tx3g
    Продолжительность : 1 ч. 48 м.
    Вид битрейта : Переменный
    Битрейт : 79 бит/сек
    Размер потока : 62, 7 Кбайт (0%)
    Заголовок : Full
    Язык : English
    Forced : Нет
    Дата кодирования : UTC 2017-11-13 08: 02: 26
    Дата пометки : UTC 2017-11-13 08: 02: 26
    Текст #4
    Идентификатор : 6
    Формат : Timed Text
    Идентификатор кодека : tx3g
    Продолжительность : 1 ч. 48 м.
    Вид битрейта : Переменный
    Битрейт : 85 бит/сек
    Размер потока : 67, 3 Кбайт (0%)
    Заголовок : SDH
    Язык : English
    Forced : Нет
    Дата кодирования : UTC 2017-11-13 08: 02: 26
    Дата пометки : UTC 2017-11-13 08: 02: 26
    Скриншоты:


    Все одноименные релизы в Клубе
    Время раздачи: с 10: 00 до 22: 00 (до появления первых 3-5 скачавших)


    Парни со стволами/War Dogs (2016) HDRip [H.264] [MP4|1280x534]
    загрузка...
    Рейтинг →
     (голосов: 1, оценка 5/5, голосовать можно 1 раз )

    Другие торренты по теме:

  • Парни со стволами / War Dogs (2016) WEBRip [H.264 / 1080p] [Трейлер]
  • Парни со стволами / War Dogs (2016) CamRip
  • Парни со стволами / War Dogs (2016) TS
  • Парни со стволами / War Dogs (2016) BDRip [H.264 / 720p] [EN]
  • Парни со стволами / War Dogs (2016) BDRip [H.264 / 1080p] [EN]
  • Парни со стволами / War Dogs (2016) BDRip [H.264 / 1080p] [Line]
  • Парни со стволами / War Dogs (2016) HDRip [Line]
  • Парни со стволами / War Dogs (2016) HDRip [H.264] [MP4|1024x428]


    • Комментарии (0):

      Информация

      Информация

        Посетители, находящиеся в группе Гости, не могут оставлять комментарии в данной новости.

        ↓ Меню




        ↓ Опрос

        Вы добавили сайт в закладки?
        Да
        Нет


        Top 10 за месяц (КПК и мобильные)