.
Авторизация | Регистрация
Хочешь лучшие торренты? Добавь свой email!
Добавить

Торрент скачать бесплатно

» » Телохранитель киллера / The Hitmans Bodyguard (2017) HDRip [H.264] [MP4|1280x536] торрент скачать бесплатно




    Телохранитель киллера / The Hitmans Bodyguard (2017) HDRip [H.264] [MP4|1280x536] торрент скачать бесплатно

    Опубликовал: Админ | Дата: 13-11-2017, 05:00 | Просмотров: 0

    Производство: США, Campbell Grobman Films, Cristal Pictures, East Light Media, Millennium Films, Nu Boyana Film Studios, Skydance Productions, TDMP
    Жанр: Боевик, Комедия
    Режиссер: Патрик Хьюз
    Продюсер: Дэвид Эллисон, Марк Гилл, Дэна Голдберг
    Актеры: Райан Рейнольдc, Сэмюэл Л. Джексон, Элоди Юнг, Цуваюки Саотомэ, Рой Хилл, Ричард Э. Грант, Гари Олдман, Род Халлетт, Юрий Колокольников, Надя Коначкиева

    Описание

    Он — телохранитель мирового уровня. Его новая работа — охранять киллера, которого все мечтают убить. Он и сам с удовольствием прикончил бы этого гада. Но работа есть работа: смертельные враги в прошлом, они вынуждены объединиться в настоящем, чтобы выжить. Однако их методы настолько различны, а принципы противоположны, что вопрос выживания — под большим вопросом.

    Возраст: 16+ (зрителям, достигшим 16 лет)
    Рейтинг MPAA: R (лицам до 17 лет обязательно присутствие взрослого)
    Дата мировой премьеры: 10 августа 2017
    Дата российской премьеры: 17 августа 2017, MEGOGO Distribution
    Продолжительность: 01: 58: 17
    Качество видео: HDRip
    Перевод: Дублированный (iTunes)
    Субтитры: Отсутствуют
    Видео: AVC/H.264, 1280x536, ~1222 Kbps
    Аудио: AAC, 2 ch, ~192 kbps

    Общее
    Полное имя : E: DownloadТелохранитель киллера 2017 720p.mp4
    Формат : MPEG-4
    Профиль формата : Base Media
    Идентификатор кодека : isom (isom)
    Размер файла : 1, 17 Гбайт
    Продолжительность : 1 ч. 58 м.
    Режим общего битрейта : Переменный
    Общий поток : 1416 Кбит/сек
    Дата кодирования : UTC 2017-11-12 08: 28: 19
    Дата пометки : UTC 2017-11-12 08: 28: 19
    Видео
    Идентификатор : 1
    Формат : AVC
    Формат/Информация : Advanced Video Codec
    Профиль формата : High@L3.1
    Настройки формата : CABAC/1 Ref Frames
    Параметр CABAC формата : Да
    Параметр RefFrames формата : 1 кадр
    Идентификатор кодека : avc1
    Идентификатор кодека/Информация : Advanced Video Coding
    Продолжительность : 1 ч. 58 м.
    Битрейт : 1222 Кбит/сек
    Максимальный битрейт : 6966 Кбит/сек
    Ширина : 1280 пикселей
    Высота : 536 пикселей
    Соотношение сторон : 2, 40: 1
    Режим частоты кадров : Постоянный
    Частота кадров : 23, 976 (24000/1001) кадра/сек
    Цветовое пространство : YUV
    Субдискретизация насыщенности : 4: 2: 0
    Битовая глубина : 8 бит
    Тип развёртки : Прогрессивная
    Бит/(Пиксели*Кадры) : 0.074
    Размер потока : 1, 01 Гбайт (86%)
    Дата пометки : UTC 2017-11-12 08: 33: 08
    Цветовой диапазон : Limited
    Основные цвета : BT.709
    Характеристики трансфера : BT.709
    Коэффициенты матрицы : BT.709
    Аудио
    Идентификатор : 2
    Формат : AAC
    Формат/Информация : Advanced Audio Codec
    Профиль формата : LC
    Идентификатор кодека : mp4a-40-2
    Продолжительность : 1 ч. 58 м.
    Вид битрейта : Переменный
    Битрейт : 192 Кбит/сек
    Максимальный битрейт : 202 Кбит/сек
    Каналы : 2 канала
    Расположение каналов : Front: L R
    Частота : 44, 1 КГц
    Частота кадров : 43, 066 кадра/сек (1024 SPF)
    Метод сжатия : С потерями
    Размер потока : 162 Мбайт (14%)
    Язык : Russian
    Дата кодирования : UTC 2017-11-11 14: 05: 34
    Дата пометки : UTC 2017-11-12 08: 33: 08
    Скриншоты:


    Все одноименные релизы в Клубе
    Время раздачи: с 10: 00 до 22: 00 (до появления первых 3-5 скачавших)


    Телохранитель киллера/The Hitmans Bodyguard (2017) HDRip [H.264] [MP4|1280x536]
    загрузка...
    Рейтинг →
     (голосов: 1, оценка 4/5, голосовать можно 1 раз )

    Другие торренты по теме:

  • Телохранитель киллера / The Hitmans Bodyguard (2017) WEBRip [H.264 / 1080p-LQ] [Звук с TS] [AD]
  • Телохранитель киллера / The Hitmans Bodyguard (2017) WEBRip [H.264 / 720p-LQ] [Звук с TS] [AD]
  • Телохранитель киллера / The Hitmans Bodyguard (2017) WEBRip [H.264 / 1080p-LQ] [EN / EN Sub]
  • Телохранитель киллера / The Hitmans Bodyguard (2017) WEBRip [MVO] [AD]
  • Телохранитель киллера / The Hitmans Bodyguard (2017) WEBRip [H.264 / 1080p-LQ] [MVO] [AD]
  • Телохранитель киллера / The Hitmans Bodyguard (2017) WEB-DLRip [MVO]
  • Телохранитель киллера / The Hitmans Bodyguard (2017) WEB-DLRip [H.264 / 720p]
  • Телохранитель киллера / The Hitmans Bodyguard (2017) WEB-DLRip [H.264 / 1080p]


    • Комментарии (0):

      Информация

      Информация

        Посетители, находящиеся в группе Гости, не могут оставлять комментарии в данной новости.

        ↓ Меню




        ↓ Опрос

        Вы добавили сайт в закладки?
        Да
        Нет


        Top 10 за месяц (КПК и мобильные)