.
Авторизация | Регистрация
Хочешь лучшие торренты? Добавь свой email!
Добавить

Торрент скачать бесплатно

» » Кловерфилд, 10 / 10 Cloverfield Lane (2016) HDRip [H.264] [MP4|1920x800] торрент скачать бесплатно




    Кловерфилд, 10 / 10 Cloverfield Lane (2016) HDRip [H.264] [MP4|1920x800] торрент скачать бесплатно

    Опубликовал: Админ | Дата: 12-11-2017, 05:00 | Просмотров: 0

    Производство: СШA/Bad Robot, Paramount Pictures, Spectrum Effects
    Жанр: Фантастика, Триллер, Драма, Детектив
    Режиссер: Дэн Трактенберг
    Продюсер: Джей Джей Абрамс, Линдси Вебер, Брайан Берк
    Актеры: Джон Гудман, Мэри Элизабет Уинстэд, Джон Галлахер мл., Дуглас М. Гриффин, Сюзанн Крайер, Брэдли Купер, Сумали Монтано, Синди Хоган, Мат Ваиро

    Описание

    Проснувшись после автомобильной аварии, девушка оказывается в подвале человека, утверждающего, что он спас ей жизнь от химической атаки, которая сделала мир за пределами бункера непригодным для жизни.

    Возраст: 16+ (зрителям, достигшим 16 лет)
    Рейтинг MPAA: PG-13 (детям до 13 лет просмотр нежелателен)
    Дата мировой премьеры: 8 марта 2016
    Дата российской премьеры: 31 марта 2016, Централ Партнершип
    Продолжительность: 01: 43: 34
    Качество видео: HDRip
    Перевод: Дублированный (Лицензия BD CEE)
    Субтитры: отсутствуют
    Видео: AVC/H.264, 1920x800, ~1285 Kbps
    Аудио: AC3, 6 ch, 384 kbps

    Общее
    Полное имя : E: DownloadКловерфилд, 10 2016 1080p.mp4
    Формат : MPEG-4
    Профиль формата : Base Media
    Идентификатор кодека : isom (isom/avc1/iso6)
    Размер файла : 1, 21 Гбайт
    Продолжительность : 1 ч. 43 м.
    Общий поток : 1671 Кбит/сек
    Дата кодирования : UTC 2017-11-11 06: 43: 33
    Дата пометки : UTC 2017-11-11 06: 43: 33
    Видео
    Идентификатор : 1
    Формат : AVC
    Формат/Информация : Advanced Video Codec
    Профиль формата : High@L4
    Настройки формата : CABAC/2 Ref Frames
    Параметр CABAC формата : Да
    Параметр RefFrames формата : 2 кадра
    Идентификатор кодека : avc1
    Идентификатор кодека/Информация : Advanced Video Coding
    Продолжительность : 1 ч. 43 м.
    Битрейт : 1285 Кбит/сек
    Максимальный битрейт : 5520 Кбит/сек
    Ширина : 1920 пикселей
    Высота : 800 пикселей
    Соотношение сторон : 2, 40: 1
    Режим частоты кадров : Постоянный
    Частота кадров : 23, 976 (24000/1001) кадра/сек
    Цветовое пространство : YUV
    Субдискретизация насыщенности : 4: 2: 0
    Битовая глубина : 8 бит
    Тип развёртки : Прогрессивная
    Бит/(Пиксели*Кадры) : 0.035
    Размер потока : 952 Мбайт (77%)
    Дата кодирования : UTC 2017-11-11 06: 43: 33
    Дата пометки : UTC 2017-11-11 06: 44: 50
    Цветовой диапазон : Limited
    Основные цвета : BT.709
    Характеристики трансфера : BT.709
    Коэффициенты матрицы : BT.709
    Аудио
    Идентификатор : 2
    Формат : AC-3
    Формат/Информация : Audio Coding 3
    Параметр Endianness формата : Big
    Идентификатор кодека : ac-3
    Продолжительность : 1 ч. 43 м.
    Вид битрейта : Постоянный
    Битрейт : 384 Кбит/сек
    Максимальный битрейт : 406 Кбит/сек
    Каналы : 6 каналов
    Расположение каналов : Front: L C R, Side: L R, LFE
    Частота : 48, 0 КГц
    Частота кадров : 31, 250 кадров/сек (1536 SPF)
    Битовая глубина : 16 бит
    Метод сжатия : С потерями
    Размер потока : 284 Мбайт (23%)
    Заголовок : Дублированный (Лицензия BD CEE)
    Язык : Russian
    ServiceKind/String : Complete Main
    Дата кодирования : UTC 2017-11-11 06: 44: 26
    Дата пометки : UTC 2017-11-11 06: 44: 50
    Скриншоты:


    Все одноименные релизы в Клубе
    Время раздачи: с 10: 00 до 22: 00 (до появления первых 3-5 скачавших)


    Кловерфилд, 10/10 Cloverfield Lane (2016) HDRip [H.264] [MP4|1920x800]
    загрузка...
    Рейтинг →
     (голосов: 1, оценка 3/5, голосовать можно 1 раз )

    Другие торренты по теме:

  • Кловерфилд, 10 / 10 Cloverfield Lane (2016) CamRip
  • Кловерфилд, 10 / 10 Cloverfield Lane (2016) WEBRip [H.264 / 1080p-LQ] [Звук с CamRip]
  • Кловерфилд, 10 / 10 Cloverfield Lane (2016) WEBRip [H.264 / 720p-LQ] [Звук с CamRip]
  • Кловерфилд, 10 / 10 Cloverfield Lane (2016) WEBRip [Звук с CamRip]
  • Кловерфилд, 10 / 10 Cloverfield Lane (2016) WEBRip [H.264 / 1080p-LQ] [Звук с CamRip]
  • Кловерфилд, 10 / 10 Cloverfield Lane (2016) WEBRip [H.264 / 720p-LQ] [Line]
  • Кловерфилд, 10 / 10 Cloverfield Lane (2016) WEBRip [Line]
  • Кловерфилд, 10 / 10 Cloverfield Lane (2016) WEBRip [H.264 / 1080p-LQ] [Line]


    • Комментарии (0):

      Информация

      Информация

        Посетители, находящиеся в группе Гости, не могут оставлять комментарии в данной новости.

        ↓ Меню




        ↓ Опрос

        Вы добавили сайт в закладки?
        Да
        Нет


        Top 10 за месяц (КПК и мобильные)