.
Авторизация | Регистрация
Хочешь лучшие торренты? Добавь свой email!
Добавить

Торрент скачать бесплатно

» » Изгой-один: Звёздные войны. Истории / Rogue One: A Star Wars Story (2016) HDRip [H.264] [MP4|1920x804] торрент скачать бесплатно




    Изгой-один: Звёздные войны. Истории / Rogue One: A Star Wars Story (2016) HDRip [H.264] [MP4|1920x804] торрент скачать бесплатно

    Опубликовал: Админ | Дата: 11-11-2017, 05:00 | Просмотров: 0

    Производство: США, Великобритания/Allison Shearmur Productions, Walt Disney Studios Motion Pictures
    Жанр: Фантастика, Боевик, Приключения
    Режиссер: Гарет Эдвардс
    Продюсер: Саймон Эмануэл, Кири Зупер, Тоби Хефферман
    Актеры: Фелисити Джонс, Диего Луна, Алан Тьюдик, Донни Йен, Цзян Вэнь, Бен Мендельсон, Форест Уитакер, Риз Ахмед, Мадс Миккельсен, Джимми Смитс

    Описание

    Сопротивление собирает отряд для выполнения особой миссии — надо выкрасть чертежи самого совершенного и смертоносного оружия Империи. Возглавляет бойцов неуправляемая и бесстрашная Джин Эрсо, у которой в этом самоубийственном задании есть и личные мотивы. Не всем суждено вернуться домой, но герои готовы к этому, ведь на кону судьба Галактики.

    Возраст: 16+ (зрителям, достигшим 16 лет)
    Рейтинг MPAA: PG-13 (детям до 13 лет просмотр нежелателен)
    Дата мировой премьеры: 10 декабря 2016
    Дата российской премьеры: 15 декабря 2016, WDSSPR
    Продолжительность: 02: 13: 57
    Качество видео: HDRip
    Перевод: Дублированный (Лицензия BD EUR)
    Субтитры: Русские (форсированные, полные), Английские (форсированные, полные)
    Видео: AVC/H.264, 1920x804, ~1693 Kbps
    Аудио: AC3, 6 ch, 384 kbps

    Общее
    Полное имя : E: DownloadИзгой-один Звёздные войны. Истории 2016 1080p.mp4
    Формат : MPEG-4
    Профиль формата : Base Media
    Идентификатор кодека : isom (isom/avc1/iso6)
    Размер файла : 1, 94 Гбайт
    Продолжительность : 2 ч. 13 м.
    Режим общего битрейта : Переменный
    Общий поток : 2078 Кбит/сек
    Дата кодирования : UTC 2017-11-10 08: 10: 03
    Дата пометки : UTC 2017-11-10 08: 10: 03
    Видео
    Идентификатор : 1
    Формат : AVC
    Формат/Информация : Advanced Video Codec
    Профиль формата : High@L4
    Настройки формата : CABAC/2 Ref Frames
    Параметр CABAC формата : Да
    Параметр RefFrames формата : 2 кадра
    Идентификатор кодека : avc1
    Идентификатор кодека/Информация : Advanced Video Coding
    Продолжительность : 2 ч. 13 м.
    Битрейт : 1693 Кбит/сек
    Максимальный битрейт : 8078 Кбит/сек
    Ширина : 1920 пикселей
    Высота : 804 пикселя
    Соотношение сторон : 2, 40: 1
    Режим частоты кадров : Постоянный
    Частота кадров : 23, 976 (24000/1001) кадра/сек
    Цветовое пространство : YUV
    Субдискретизация насыщенности : 4: 2: 0
    Битовая глубина : 8 бит
    Тип развёртки : Прогрессивная
    Бит/(Пиксели*Кадры) : 0.046
    Размер потока : 1, 58 Гбайт (81%)
    Дата кодирования : UTC 2017-11-10 08: 10: 03
    Дата пометки : UTC 2017-11-10 08: 13: 38
    Цветовой диапазон : Limited
    Основные цвета : BT.709
    Характеристики трансфера : BT.709
    Коэффициенты матрицы : BT.709
    Аудио
    Идентификатор : 2
    Формат : AC-3
    Формат/Информация : Audio Coding 3
    Параметр Endianness формата : Big
    Идентификатор кодека : ac-3
    Продолжительность : 2 ч. 13 м.
    Вид битрейта : Постоянный
    Битрейт : 384 Кбит/сек
    Максимальный битрейт : 406 Кбит/сек
    Каналы : 6 каналов
    Расположение каналов : Front: L C R, Side: L R, LFE
    Частота : 48, 0 КГц
    Частота кадров : 31, 250 кадров/сек (1536 SPF)
    Битовая глубина : 16 бит
    Метод сжатия : С потерями
    Размер потока : 368 Мбайт (18%)
    Заголовок : Дублированный (Лицензия BD EUR)
    Язык : Russian
    ServiceKind/String : Complete Main
    Дата кодирования : UTC 2017-11-10 08: 12: 24
    Дата пометки : UTC 2017-11-10 08: 13: 38
    Текст #1
    Идентификатор : 3
    Формат : Timed Text
    Идентификатор кодека : tx3g
    Продолжительность : 37 м. 5 с.
    Вид битрейта : Переменный
    Битрейт : 1 бит/сек
    Размер потока : 355 байт (0%)
    Заголовок : Forced
    Язык : Russian
    Forced : Нет
    Дата кодирования : UTC 2017-11-10 08: 13: 37
    Дата пометки : UTC 2017-11-10 08: 13: 38
    Текст #2
    Идентификатор : 4
    Формат : Timed Text
    Идентификатор кодека : tx3g
    Продолжительность : 2 ч. 5 м.
    Вид битрейта : Переменный
    Битрейт : 87 бит/сек
    Размер потока : 80, 0 Кбайт (0%)
    Заголовок : Full
    Язык : Russian
    Forced : Нет
    Дата кодирования : UTC 2017-11-10 08: 13: 38
    Дата пометки : UTC 2017-11-10 08: 13: 38
    Текст #3
    Идентификатор : 5
    Формат : Timed Text
    Идентификатор кодека : tx3g
    Продолжительность : 1 ч. 23 м.
    Вид битрейта : Переменный
    Битрейт : 1 бит/сек
    Размер потока : 535 байт (0%)
    Заголовок : Forced
    Язык : English
    Forced : Нет
    Дата кодирования : UTC 2017-11-10 08: 13: 38
    Дата пометки : UTC 2017-11-10 08: 13: 38
    Текст #4
    Идентификатор : 6
    Формат : Timed Text
    Идентификатор кодека : tx3g
    Продолжительность : 2 ч. 5 м.
    Вид битрейта : Переменный
    Битрейт : 57 бит/сек
    Размер потока : 52, 5 Кбайт (0%)
    Заголовок : Full
    Язык : English
    Forced : Нет
    Дата кодирования : UTC 2017-11-10 08: 13: 38
    Дата пометки : UTC 2017-11-10 08: 13: 38
    Скриншоты:


    Все одноименные релизы в Клубе
    Время раздачи: с 10: 00 до 22: 00 (до появления первых 3-5 скачавших)


    Изгой-один: Звёздные войны. Истории/Rogue One: A Star Wars Story (2016) HDRip [H.264] [MP4|1920x804]
    загрузка...
    Рейтинг →
     (голосов: 1, оценка 5/5, голосовать можно 1 раз )

    Другие торренты по теме:

  • Изгой-один: Звёздные войны. Истории / Rogue One: A Star Wars Story (2016) WEBRip [H.264 / 1080p] [EN] [Трейлер#2]
  • Изгой-один: Звёздные войны. Истории / Rogue One: A Star Wars Story (2016) WEBRip [H.264 / 1080p] [EN] [Трейлер#3]
  • Изгой-один: Звёздные войны. Истории / Rogue One: A Star Wars Story (2016) CAMRip
  • Michael Giacchino - Rogue One: A Star Wars Story / Изгой-один: Звёздные войны. Истории (Original Motion Picture Soundtrack) (2016) [MP3|320 кб / с]<Soundtrack>
  • Michael Giacchino - Rogue One: A Star Wars Story / Изгой-один: Звёздные войны. Истории (Original Motion Picture Soundtrack) (2016) [FLAC|Lossless|WEB-DL|tracks]<Soundtrack>
  • Изгой-один: Звёздные войны. Истории / Rogue One: A Star Wars Story (2016) CamRip
  • Michael Giacchino - Rogue One: A Star Wars Story / Изгой-один: Звёздные войны Истории (Original Motion Picture Soundtrack) (2016) [FLAC|Lossless|tracks +.cue]<Soundtrack>
  • Изгой-один: Звёздные войны. Истории / Rogue One: A Star Wars Story (2016) TS [H.264]


    • Комментарии (0):

      Информация

      Информация

        Посетители, находящиеся в группе Гости, не могут оставлять комментарии в данной новости.

        ↓ Меню




        ↓ Опрос

        Вы добавили сайт в закладки?
        Да
        Нет


        Top 10 за месяц (КПК и мобильные)