.
Авторизация | Регистрация
Хочешь лучшие торренты? Добавь свой email!
Добавить

Торрент скачать бесплатно

» » Пассажиры / Passengers (2016) HDRip [H.264] [MP4|1280x534] торрент скачать бесплатно




    Пассажиры / Passengers (2016) HDRip [H.264] [MP4|1280x534] торрент скачать бесплатно

    Опубликовал: Админ | Дата: 10-11-2017, 05:00 | Просмотров: 0

    Производство: США/Columbia Pictures, Village Roadshow Pictures
    Жанр: Фантастика, Триллер, Драма
    Режиссер: Мортен Тильдум
    Продюсер: Грег Бассер, Грег Бакстер, Брюс Берман
    Актеры: Дженнифер Лоуренс, Крис Пратт, Майкл Шин, Лоренс Фишбёрн, Энди Гарсиа, Винс Фостер, Кара Мишель Уайлдер, Конор Брофи, Джули Серда, Аврора Перрино

    Описание

    Космический корабль с 5, 000 пассажиров на борту, погруженных на время полета в искусственный сон, держит курс на планету, которая станет для них новым домом. Всё идет по плану, но из-за сбоя системы двое пассажиров неожиданно просыпаются и понимают, что до конечного пункта путешествия — 90 лет пути, и им суждено остаток жизни провести вдвоем в роскошных интерьерах корабля, оснащенного по последнему слову техники. Постепенно Джима и Аврору начинает непреодолимо тянуть друг к другу, но корабль попадает в беду, и теперь в их руках — жизнь и судьба всех обитателей корабля.

    Возраст: 16+ (зрителям, достигшим 16 лет)
    Рейтинг MPAA: PG-13 (детям до 13 лет просмотр нежелателен)
    Дата мировой премьеры: 14 декабря 2016
    Дата российской премьеры: 22 декабря 2016, WDSSPR
    Продолжительность: 01: 56: 11
    Качество видео: HDRip
    Перевод: Дублированный (Лицензия BD EUR)
    Субтитры: отсутствуют
    Видео: AVC/H.264, 1280x534, ~1106 Kbps
    Аудио: AAC, 2 ch, ~192 kbps

    Общее
    Полное имя : E: DownloadПассажиры 2016 720p.mp4
    Формат : MPEG-4
    Профиль формата : Base Media
    Идентификатор кодека : isom (isom)
    Размер файла : 1, 06 Гбайт
    Продолжительность : 1 ч. 56 м.
    Режим общего битрейта : Переменный
    Общий поток : 1300 Кбит/сек
    Дата кодирования : UTC 2017-11-09 07: 54: 48
    Дата пометки : UTC 2017-11-09 07: 54: 48
    Видео
    Идентификатор : 1
    Формат : AVC
    Формат/Информация : Advanced Video Codec
    Профиль формата : High@L3.1
    Настройки формата : CABAC/1 Ref Frames
    Параметр CABAC формата : Да
    Параметр RefFrames формата : 1 кадр
    Параметр GOP формата : M=1, N=60
    Идентификатор кодека : avc1
    Идентификатор кодека/Информация : Advanced Video Coding
    Продолжительность : 1 ч. 56 м.
    Битрейт : 1106 Кбит/сек
    Максимальный битрейт : 8521 Кбит/сек
    Ширина : 1280 пикселей
    Высота : 534 пикселя
    Соотношение сторон : 2, 40: 1
    Режим частоты кадров : Постоянный
    Частота кадров : 23, 976 (24000/1001) кадра/сек
    Цветовое пространство : YUV
    Субдискретизация насыщенности : 4: 2: 0
    Битовая глубина : 8 бит
    Тип развёртки : Прогрессивная
    Бит/(Пиксели*Кадры) : 0.067
    Размер потока : 919 Мбайт (85%)
    Дата пометки : UTC 2017-11-09 07: 55: 38
    Цветовой диапазон : Limited
    Основные цвета : BT.709
    Характеристики трансфера : BT.709
    Коэффициенты матрицы : BT.709
    Аудио
    Идентификатор : 2
    Формат : AAC
    Формат/Информация : Advanced Audio Codec
    Профиль формата : LC
    Идентификатор кодека : mp4a-40-2
    Продолжительность : 1 ч. 56 м.
    Вид битрейта : Переменный
    Битрейт : 192 Кбит/сек
    Максимальный битрейт : 202 Кбит/сек
    Каналы : 2 канала
    Расположение каналов : Front: L R
    Частота : 44, 1 КГц
    Частота кадров : 43, 066 кадра/сек (1024 SPF)
    Метод сжатия : С потерями
    Размер потока : 160 Мбайт (15%)
    Язык : Russian
    Дата кодирования : UTC 2017-11-08 08: 26: 34
    Дата пометки : UTC 2017-11-09 07: 55: 38
    Скриншоты:


    Все одноименные релизы в Клубе
    Время раздачи: с 10: 00 до 22: 00 (до появления первых 3-5 скачавших)


    Пассажиры/Passengers (2016) HDRip [H.264] [MP4|1280x534]
    загрузка...
    Рейтинг →
     (голосов: 1, оценка 4/5, голосовать можно 1 раз )

    Другие торренты по теме:

  • Пассажиры / Passengers (2016) WEBRip [H.264 / 1080p] [Трейлер]
  • Пассажиры / Passengers (2016) TS
  • Пассажиры / Passengers (2016) WEBRip [H.264 / 1080p-LQ] [Звук с TS]
  • Пассажиры / Passengers (2016) HDTVRip [H.264] [MP4|1024x576]
  • Пассажиры / Passengers (2016) WEBRip [Звук с TS]
  • Пассажиры / Passengers (2016) WEBRip [H.264 / 1080p-LQ] [Line]
  • Пассажиры / Passengers (2016) WEBRip [Line]
  • Пассажиры / Passengers (2016) WEB-DL [H.264 / 720p-LQ] [Line]


    • Комментарии (0):

      Информация

      Информация

        Посетители, находящиеся в группе Гости, не могут оставлять комментарии в данной новости.

        ↓ Меню




        ↓ Опрос

        Вы добавили сайт в закладки?
        Да
        Нет


        Top 10 за месяц (КПК и мобильные)