.
Авторизация | Регистрация
Хочешь лучшие торренты? Добавь свой email!
Добавить

Торрент скачать бесплатно

» » Славные парни / The Nice Guys (2016) HDRip [H.264] [MP4|1920x800] торрент скачать бесплатно




    Славные парни / The Nice Guys (2016) HDRip [H.264] [MP4|1920x800] торрент скачать бесплатно

    Опубликовал: Админ | Дата: 9-11-2017, 05:00 | Просмотров: 0

    Производство: США, Великобритания, Bloom, Nice Guys, Waypoint Entertainment
    Жанр: Криминал, Комедия
    Режиссер: Шейн Блэк
    Продюсер: Джоэл Силвер, Аарон Ауч, Энтони Багароцци
    Актеры: Райан Гослинг, Ким Бейсингер, Рассел Кроу, Энгаури Райс, Мэтт Бомер, Маргарет Куэлли, Йайа ДаКоста, Кит Дэвид, Бо Напп, Лоис Смит

    Описание

    Что бывает, когда напарником брутального костолома становится субтильный лопух? Наемный охранник Джексон Хили и частный детектив Холланд Марч вынуждены работать в паре, чтобы распутать плевое дело о пропавшей девушке, которое оборачивается преступлением века. Смогут ли парни разгадать сложный ребус, если у каждого из них - свои, весьма индивидуальные, методы...

    Возраст: 16+ (зрителям, достигшим 16 лет)
    Рейтинг MPAA: R (лицам до 17 лет обязательно присутствие взрослого)
    Дата мировой премьеры: 15 мая 2016
    Дата российской премьеры: 16 июня 2016, Парадиз
    Продолжительность: 01: 55: 57
    Качество видео: HDRip
    Перевод: Дублированный (iTunes)
    Субтитры: отсутствуют
    Видео: AVC/H.264, 1920x800, ~1441 Kbps
    Аудио: AC3, 6 ch, 384 kbps

    Общее
    Полное имя : E: DownloadСлавные парни 2016 1080p.mp4
    Формат : MPEG-4
    Профиль формата : Base Media
    Идентификатор кодека : isom (isom/avc1/iso6)
    Размер файла : 1, 48 Гбайт
    Продолжительность : 1 ч. 55 м.
    Общий поток : 1827 Кбит/сек
    Дата кодирования : UTC 2017-11-07 09: 48: 02
    Дата пометки : UTC 2017-11-07 09: 48: 02
    Видео
    Идентификатор : 1
    Формат : AVC
    Формат/Информация : Advanced Video Codec
    Профиль формата : High@L4
    Настройки формата : CABAC/2 Ref Frames
    Параметр CABAC формата : Да
    Параметр RefFrames формата : 2 кадра
    Идентификатор кодека : avc1
    Идентификатор кодека/Информация : Advanced Video Coding
    Продолжительность : 1 ч. 55 м.
    Битрейт : 1441 Кбит/сек
    Максимальный битрейт : 6098 Кбит/сек
    Ширина : 1920 пикселей
    Высота : 800 пикселей
    Соотношение сторон : 2, 40: 1
    Режим частоты кадров : Постоянный
    Частота кадров : 23, 976 (24000/1001) кадра/сек
    Цветовое пространство : YUV
    Субдискретизация насыщенности : 4: 2: 0
    Битовая глубина : 8 бит
    Тип развёртки : Прогрессивная
    Бит/(Пиксели*Кадры) : 0.039
    Размер потока : 1, 17 Гбайт (79%)
    Дата кодирования : UTC 2017-11-07 09: 48: 02
    Дата пометки : UTC 2017-11-07 09: 49: 37
    Цветовой диапазон : Limited
    Основные цвета : BT.709
    Характеристики трансфера : BT.709
    Коэффициенты матрицы : BT.709
    Аудио
    Идентификатор : 2
    Формат : AC-3
    Формат/Информация : Audio Coding 3
    Параметр Endianness формата : Big
    Идентификатор кодека : ac-3
    Продолжительность : 1 ч. 55 м.
    Вид битрейта : Постоянный
    Битрейт : 384 Кбит/сек
    Максимальный битрейт : 406 Кбит/сек
    Каналы : 6 каналов
    Расположение каналов : Front: L C R, Side: L R, LFE
    Частота : 48, 0 КГц
    Частота кадров : 31, 250 кадров/сек (1536 SPF)
    Битовая глубина : 16 бит
    Метод сжатия : С потерями
    Размер потока : 318 Мбайт (21%)
    Заголовок : Дублированный (iTunes)
    Язык : Russian
    ServiceKind/String : Complete Main
    Дата кодирования : UTC 2017-11-07 09: 49: 12
    Дата пометки : UTC 2017-11-07 09: 49: 37
    Скриншоты:


    Все одноименные релизы в Клубе
    Время раздачи: с 10: 00 до 22: 00 (до появления первых 3-5 скачавших)


    Славные парни/The Nice Guys (2016) HDRip [H.264] [MP4|1920x800]
    загрузка...
    Рейтинг →
     (голосов: 1, оценка 3/5, голосовать можно 1 раз )

    Другие торренты по теме:

  • Славные парни / Goodfellas (1990) BDRip [720p]
  • Славные парни / Goodfellas (1990) BDRemux [1080p] скачать через торрент бесплатно
  • Славные парни / Goodfellas (1990) BDRip [H.264 / 720p-LQ] [Hi10P]
  • Славные парни / Goodfellas (1990) BDRip [H.264 / 1080p] скачать через торрент бесплатно
  • Славные парни / The Glory Guys (1965) DVDRip [H.264] [АVO] скачать через торрент бесплатно
  • Славные парни / Goodfellas (1990) BDRip [H.264 / 720p]
  • Славные парни / The Nice Guys (2016)
  • John Ottman & David Buckley - The Nice Guys / Славные парни (Original Motion Picture Score) (2016) [MP3|320 кб / с]<Score>


    • Комментарии (0):

      Информация

      Информация

        Посетители, находящиеся в группе Гости, не могут оставлять комментарии в данной новости.

        ↓ Меню




        ↓ Опрос

        Вы добавили сайт в закладки?
        Да
        Нет


        Top 10 за месяц (КПК и мобильные)