.
Авторизация | Регистрация
Хочешь лучшие торренты? Добавь свой email!
Добавить

Торрент скачать бесплатно

» » Садхгуру (Джагги Васудев) - Собрание переведенных лекций (2017) SATRip [H.264] [MP4|1280x720] торрент скачать бесплатно



    Садхгуру (Джагги Васудев) - Собрание переведенных лекций (2017) SATRip [H.264] [MP4|1280x720] торрент скачать бесплатно

    Опубликовал: Админ | Дата: 7-11-2017, 05:00 | Просмотров: 0

    Жанр: Документальный

    Описание

    Садхгуру (Джагги Васудев) - индийский йогин и мистик. Он основал Фонд Иша, благотворительную организацию, которая проводит программы йоги по всему миру, включая Индию, США, Англию, Ливан, Сингапур, Канаду, Малайзию, Уганду и Австралию. Фонд также вовлечён в различные социально-общественные инициативы, в результате которых ему был присвоен особый консультативный статус в Экономическом и Социальном Совете ООН.
    Ранние годы
    Джагги Васудев родился 3 сентября 1957, в городе Майсур (штат Карнатака, Индия) под именем Джагадиш Васудев. Его отец был доктором. В возрасте 11 лет Джагги начал практиковать йогу, в частности асаны и пранаяму, под опекой Рагхавендры Рао, более широко известного под именем Малладихалли Свами. Садхгуру был одним из лучших в школьные годы и блестящим студентом. В Майсорском университете он получил степень по английской литературе.
    Опыт просветления
    В возрасте двадцати пяти лет к Джагги пришло глубокое духовное переживание, которому было суждено изменить его будущую жизнь. Садхгуру описывает, как однажды отправился на холмы Чамунди в Майсуре и сел на вершине скалы с открытыми глазами. Неожиданно он перестал чувствовать границы тела и ощутил единство со всем, что его окружало. По его словам он не мог отличить, где он, а где нет. Все вокруг — скалы, деревья, землю — он воспринимал частью себя. Когда он вернулся к своему нормальному состоянию, прошло более четырёх часов, уже стемнело. Он не знал, было ли это галлюцинацией, но в последующие дни это состояние повторялось и каждый раз оставляло его в состоянии непередаваемого блаженства. Этот эпизод полностью изменил его жизнь. Джагги принял решение посвятить свою жизнь тому, чтобы разделить этот опыт и постараться дать людям возможность приблизиться к их божественной природе.
    Качество видео: SATRip
    Перевод: Одноголосый закадровый
    Субтитры: отсутствуют
    Видео: AVC/H.264, 1280x720, ~973 Kbps
    Аудио: AAC, 2 ch, ~126 Kbps

    Общее
    Полное имя : C: Садхгуру (Джагги Васудев) - Собрание переведенных лекцийЛекции с озвучкойКак остановить свой ум.mp4
    Формат : MPEG-4
    Профиль формата : Base Media/Version 2
    Идентификатор кодека : mp42 (isom/mp42)
    Размер файла : 61, 1 Мбайт
    Продолжительность : 7 м. 45 с.
    Режим общего битрейта : Переменный
    Общий поток : 1102 Кбит/сек
    Дата кодирования : UTC 2017-10-20 06: 43: 50
    Дата пометки : UTC 2017-10-20 06: 43: 50
    gsst : 0
    gstd : 465095
    Видео
    Идентификатор : 1
    Формат : AVC
    Формат/Информация : Advanced Video Codec
    Профиль формата : Main@L3.1
    Параметр CABAC формата : Да
    Параметр ReFrames формата : 3 кадра
    Идентификатор кодека : avc1
    Идентификатор кодека/Информация : Advanced Video Coding
    Продолжительность : 7 м. 45 с.
    Битрейт : 973 Кбит/сек
    Ширина : 1280 пикселей
    Высота : 720 пикселей
    Соотношение сторон : 16: 9
    Режим частоты кадров : Постоянный
    Частота кадров : 25, 000 кадров/сек
    Цветовое пространство : YUV
    Субдискретизация насыщенности : 4: 2: 0
    Битовая глубина : 8 бит
    Тип развёртки : Прогрессивная
    Бит/(Пиксели*Кадры) : 0.042
    Размер потока : 53, 9 Мбайт (88%)
    Заголовок : ISO Media file produced by Google Inc. Created on: 10/19/2017.
    Дата кодирования : UTC 2017-10-20 06: 43: 50
    Дата пометки : UTC 2017-10-20 06: 43: 50
    Цветовой диапазон : Limited
    Основные цвета : BT.709
    Характеристики трансфера : BT.709
    Коэффициенты матрицы : BT.709
    Аудио
    Идентификатор : 2
    Формат : AAC
    Формат/Информация : Advanced Audio Codec
    Профиль формата : LC
    Идентификатор кодека : 40
    Продолжительность : 7 м. 45 с.
    Вид битрейта : Переменный
    Битрейт : 126 Кбит/сек
    Каналы : 2 канала
    Расположение каналов : Front: L R
    Частота : 44, 1 КГц
    Частота кадров : 43, 066 кадра/сек (1024 spf)
    Метод сжатия : С потерями
    Размер потока : 6, 96 Мбайт (11%)
    Заголовок : ISO Media file produced by Google Inc. Created on: 10/19/2017.
    Дата кодирования : UTC 2017-10-20 06: 43: 50
    Дата пометки : UTC 2017-10-20 06: 43: 50
    Скриншоты:


    Все одноименные релизы в Клубе
    Время раздачи: 24/7 (круглосуточно) (до появления первых 3-5 скачавших) (до появления первых 3-5 скачавших)

    Прямая ссылка скачивания через uTorrent


    Садхгуру (Джагги Васудев) - Собрание переведенных лекций (2017) SATRip [H.264] [MP4|1280x720]
    загрузка...
    Рейтинг →
     (голосов: 1, оценка 3/5, голосовать можно 1 раз )

    Другие торренты по теме:

  • Садхгуру (Джагги Васудев) | Собрание переведенных и озвученных отрывков лекций (2017) [MP3]


    • Комментарии (0):

      Информация

      Информация

        Посетители, находящиеся в группе Гости, не могут оставлять комментарии в данной новости.

        ↓ Меню




        ↓ Опрос

        Вы добавили сайт в закладки?
        Да
        Нет


        Top 10 за месяц (КПК и мобильные)