.
Авторизация | Регистрация
Хочешь лучшие торренты? Добавь свой email!
Добавить

Торрент скачать бесплатно

» » Дэдпул / Deadpool (2016) HDRip [H.264] [MP4|1920x804] торрент скачать бесплатно




    Дэдпул / Deadpool (2016) HDRip [H.264] [MP4|1920x804] торрент скачать бесплатно

    Опубликовал: Админ | Дата: 6-11-2017, 05:01 | Просмотров: 0

    Производство: США, Канада/20th Century Fox Film Corporation, Donners\' Company, Kinberg Genre
    Жанр: Фантастика, Боевик, Комедия, Приключения
    Режиссер: Тим Миллер
    Продюсер: Саймон Кинберг, Райан Рейнольдс, Лорен Шулер Доннер
    Актеры: Райан Рейнольдс, Морена Баккарин, Эд Скрейн, ТиДжей Миллер, Джина Карано, Брианна Хилдебранд, Стефан Капичич, Лесли Уггэмс, Джед Риис, Каран Сони, Майкл Беняер, Стайл Дэйн, Кайл Кэсси, Тэйлор Хиксон, Айзи, Наика Туссэн, Рендал Ридер, Айзек С. Синглтон мл., Джастин Шиппелт, Донна Ямамото

    Описание

    Уэйд Уилсон — наёмник. Будучи побочным продуктом программы вооружённых сил под названием Оружие X, Уилсон приобрёл невероятную силу, проворство и способность к исцелению. Но страшной ценой: его клеточная структура постоянно меняется, а здравомыслие сомнительно. Всё, чего Уилсон хочет, — это держаться на плаву в социальной выгребной яме. Но течение в ней слишком быстрое.

    Возраст: 18+ (зрителям, достигшим 18 лет. запрещено для детей)
    Рейтинг MPAA: R (лицам до 17 лет обязательно присутствие взрослого)
    Дата мировой премьеры: 21 января 2016
    Дата российской премьеры: 11 февраля 2016, Двадцатый Век Фокс СНГ
    Продолжительность: 01: 48: 06
    Качество видео: HDRip
    Перевод: Дублированный (Лицензия BD CEE)
    Субтитры: отсутствуют
    Видео: AVC/H.264, 1920x804, ~1945 Kbps
    Аудио: AC3, 6 ch, 384 kbps

    Общее
    Полное имя : E: DownloadДэдпул 2016 1080p.mp4
    Формат : MPEG-4
    Профиль формата : Base Media
    Идентификатор кодека : isom (isom/avc1/iso6)
    Размер файла : 1, 76 Гбайт
    Продолжительность : 1 ч. 48 м.
    Общий поток : 2331 Кбит/сек
    Дата кодирования : UTC 2017-11-03 06: 11: 07
    Дата пометки : UTC 2017-11-03 06: 11: 07
    Видео
    Идентификатор : 1
    Формат : AVC
    Формат/Информация : Advanced Video Codec
    Профиль формата : High@L4
    Настройки формата : CABAC/2 Ref Frames
    Параметр CABAC формата : Да
    Параметр RefFrames формата : 2 кадра
    Идентификатор кодека : avc1
    Идентификатор кодека/Информация : Advanced Video Coding
    Продолжительность : 1 ч. 48 м.
    Битрейт : 1945 Кбит/сек
    Максимальный битрейт : 9272 Кбит/сек
    Ширина : 1920 пикселей
    Высота : 804 пикселя
    Соотношение сторон : 2, 40: 1
    Режим частоты кадров : Постоянный
    Частота кадров : 23, 976 (24000/1001) кадра/сек
    Цветовое пространство : YUV
    Субдискретизация насыщенности : 4: 2: 0
    Битовая глубина : 8 бит
    Тип развёртки : Прогрессивная
    Бит/(Пиксели*Кадры) : 0.053
    Размер потока : 1, 47 Гбайт (83%)
    Дата кодирования : UTC 2017-11-03 06: 11: 07
    Дата пометки : UTC 2017-11-03 06: 12: 56
    Цветовой диапазон : Limited
    Основные цвета : BT.709
    Характеристики трансфера : BT.709
    Коэффициенты матрицы : BT.709
    Аудио
    Идентификатор : 2
    Формат : AC-3
    Формат/Информация : Audio Coding 3
    Параметр Endianness формата : Big
    Идентификатор кодека : ac-3
    Продолжительность : 1 ч. 48 м.
    Вид битрейта : Постоянный
    Битрейт : 384 Кбит/сек
    Максимальный битрейт : 406 Кбит/сек
    Каналы : 6 каналов
    Расположение каналов : Front: L C R, Side: L R, LFE
    Частота : 48, 0 КГц
    Частота кадров : 31, 250 кадров/сек (1536 SPF)
    Битовая глубина : 16 бит
    Метод сжатия : С потерями
    Размер потока : 297 Мбайт (16%)
    Заголовок : Дублированный (Лицензия BD CEE)
    Язык : Russian
    ServiceKind/String : Complete Main
    Дата кодирования : UTC 2017-11-03 06: 12: 36
    Дата пометки : UTC 2017-11-03 06: 12: 56
    Скриншоты:


    Все одноименные релизы в Клубе
    Время раздачи: с 10: 00 до 22: 00 (до появления первых 3-5 скачавших)


    Дэдпул/Deadpool (2016) HDRip [H.264] [MP4|1920x804]
    загрузка...
    Рейтинг →
     (голосов: 1, оценка 3/5, голосовать можно 1 раз )

    Другие торренты по теме:

  • Дэдпул / Deadpool (2016) WEBRip [H.264 / 1080p] [Трейлер] [EN] скачать через торрент бесплатно
  • Дэдпул / Deadpool (2016) WEBRip [H.264 / 720p] [Трейлер] [EN] скачать через торрент бесплатно
  • Дэдпул / Deadpool (2016) WEBRip [H.264 / 1080p] [Трейлер] скачать через торрент бесплатно
  • Tom Holkenborg aka Junkie XL - Дэдпул / Deadpool (Original Motion Picture Soundtrack) (2016) [MP3|320 кб / с]<Soundtrack>
  • Tom Holkenborg aka Junkie XL - Дэдпул / Deadpool (Original Motion Picture Soundtrack) (2016) [FLAC|Lossless|WEB-DL|tracks]<Soundtrack>
  • Дэдпул / Deadpool (2016) CamRip
  • Дэдпул / Deadpool (2016) CamRip
  • Дэдпул / Deadpool (2016) CamRip


    • Комментарии (0):

      Информация

      Информация

        Посетители, находящиеся в группе Гости, не могут оставлять комментарии в данной новости.

        ↓ Меню




        ↓ Опрос

        Вы добавили сайт в закладки?
        Да
        Нет


        Top 10 за месяц (КПК и мобильные)