.
Авторизация | Регистрация
Хочешь лучшие торренты? Добавь свой email!
Добавить

Торрент скачать бесплатно

» » Ветреная река / Wind River (2017) HDRip [H.264] [MP4|1920x804] торрент скачать бесплатно




    Ветреная река / Wind River (2017) HDRip [H.264] [MP4|1920x804] торрент скачать бесплатно

    Опубликовал: Админ | Дата: 6-11-2017, 05:00 | Просмотров: 0

    Производство: Великобритания, Канада, США/Acacia Filmed Entertainment, Film 44, Ingenious Media, Savvy Media Holdings, Star Thrower Entertainment
    Жанр: Боевик, Триллер, Криминал, Детектив
    Режиссер: Тейлор Шеридан
    Продюсер: Браден Афтегуд, Элизабет А. Белл, Питер Берг
    Актеры: Джереми Реннер, Элизабет Олсен, Джон Бернтал, Келси Чоу, Джулия Джонс, Тео Брионес, Апесанахкват, Грэм Грин, Танту Кардинал, Эрик Ланж, Джил Бирмингем

    Описание

    В пустыне на территории индейской резервации Ветреная река егерь Кори Ламберт находит изувеченное тело молодой девушки. Опытный охотник с трагическим прошлым, он берется помочь в расследовании этого дела агенту ФБР Джейн Бэннер, которая оказывается в мире, полном загадок и насилия. Но смогут ли они противостоять зловещим силам этих мест, где сама природа пропитана горечью и жаждой мщения?..
    Фильм основан на реальных событиях.

    Возраст: 18+ (зрителям, достигшим 18 лет. запрещено для детей)
    Рейтинг MPAA: R (лицам до 17 лет обязательно присутствие взрослого)
    Дата мировой премьеры: 21 января 2017
    Дата российской премьеры: 3 августа 2017
    Продолжительность: 01: 46: 47
    Качество видео: HDRip
    Перевод: Дублированный (iTunes)
    Субтитры: отсутствуют
    Видео: AVC/H.264, 1920x804, ~1705 Kbps
    Аудио: AC3, 6 ch, 384 kbps

    Общее
    Полное имя : E: DownloadВетреная река 2017 1080p.mp4
    Формат : MPEG-4
    Профиль формата : Base Media
    Идентификатор кодека : isom (isom/avc1/iso6)
    Размер файла : 1, 56 Гбайт
    Продолжительность : 1 ч. 46 м.
    Общий поток : 2091 Кбит/сек
    Дата кодирования : UTC 2017-11-05 09: 01: 42
    Дата пометки : UTC 2017-11-05 09: 01: 42
    Видео
    Идентификатор : 1
    Формат : AVC
    Формат/Информация : Advanced Video Codec
    Профиль формата : High@L4
    Настройки формата : CABAC/2 Ref Frames
    Параметр CABAC формата : Да
    Параметр RefFrames формата : 2 кадра
    Идентификатор кодека : avc1
    Идентификатор кодека/Информация : Advanced Video Coding
    Продолжительность : 1 ч. 46 м.
    Битрейт : 1705 Кбит/сек
    Максимальный битрейт : 5957 Кбит/сек
    Ширина : 1920 пикселей
    Высота : 804 пикселя
    Соотношение сторон : 2, 40: 1
    Режим частоты кадров : Постоянный
    Частота кадров : 23, 976 (24000/1001) кадра/сек
    Цветовое пространство : YUV
    Субдискретизация насыщенности : 4: 2: 0
    Битовая глубина : 8 бит
    Тип развёртки : Прогрессивная
    Бит/(Пиксели*Кадры) : 0.046
    Размер потока : 1, 27 Гбайт (82%)
    Дата кодирования : UTC 2017-11-05 09: 01: 42
    Дата пометки : UTC 2017-11-05 09: 03: 29
    Цветовой диапазон : Limited
    Основные цвета : BT.709
    Характеристики трансфера : BT.709
    Коэффициенты матрицы : BT.709
    Аудио
    Идентификатор : 2
    Формат : AC-3
    Формат/Информация : Audio Coding 3
    Параметр Endianness формата : Big
    Идентификатор кодека : ac-3
    Продолжительность : 1 ч. 46 м.
    Вид битрейта : Постоянный
    Битрейт : 384 Кбит/сек
    Максимальный битрейт : 406 Кбит/сек
    Каналы : 6 каналов
    Расположение каналов : Front: L C R, Side: L R, LFE
    Частота : 48, 0 КГц
    Частота кадров : 31, 250 кадров/сек (1536 SPF)
    Битовая глубина : 16 бит
    Метод сжатия : С потерями
    Размер потока : 293 Мбайт (18%)
    Заголовок : Дублированный (iTunes)
    Язык : Russian
    ServiceKind/String : Complete Main
    Дата кодирования : UTC 2017-11-05 09: 02: 51
    Дата пометки : UTC 2017-11-05 09: 03: 29
    Скриншоты:


    Все одноименные релизы в Клубе
    Время раздачи: с 10: 00 до 22: 00 (до появления первых 3-5 скачавших)


    Ветреная река/Wind River (2017) HDRip [H.264] [MP4|1920x804]
    загрузка...
    Рейтинг →
     (голосов: 1, оценка 3/5, голосовать можно 1 раз )

    Другие торренты по теме:

  • Ветреная река / Wind River (2017) HDTVRip [Звук с TS] [AD]
  • Ветреная река / Wind River (2017) WEBRip [H.264 / 720p-LQ] [EN / KOR Sub]
  • Ветреная река / Wind River (2017) WEBRip [H.264 / 1080p-LQ] [MVO] [AD]
  • Ветреная река / Wind River (2017) WEB-DL [H.264 / 1080p-LQ] [EN / EN Sub]
  • Ветреная река / Wind River (2017) WEBRip [H.264 / 1080p-LQ] [AD]
  • Ветреная река / Wind River (2017) WEB-DL [H.264 / 1080p-LQ]
  • Ветреная река / Wind River (2017) WEB-DLRip
  • Ветреная река / Wind River (2017) WEB-DLRip [H.264]


    • Комментарии (0):

      Информация

      Информация

        Посетители, находящиеся в группе Гости, не могут оставлять комментарии в данной новости.

        ↓ Меню




        ↓ Опрос

        Вы добавили сайт в закладки?
        Да
        Нет


        Top 10 за месяц (КПК и мобильные)