.
Авторизация | Регистрация
Хочешь лучшие торренты? Добавь свой email!
Добавить

Торрент скачать бесплатно

» » А.Р. Аганов. Лекция «Предсказательная кристаллография: новые материалы и новые химические явления» (2017) WEBRip [H.264] [MP4|1280x720] торрент скачать бесплатно




    А.Р. Аганов. Лекция «Предсказательная кристаллография: новые материалы и новые химические явления» (2017) WEBRip [H.264] [MP4|1280x720] торрент скачать бесплатно

    Опубликовал: Админ | Дата: 5-11-2017, 05:01 | Просмотров: 0

    Жанр: Лекция, Документальный
    Ведущий: А.Р. Аганов

    Описание

    Лекция состоялась в Научно-популярном лектории центра Архэ 23 марта 2017 года.
    Всемирно известный ученый расскажет о том, как современные методы искусственного интеллекта позволяют предсказать новые химические соединения и явления. Вы также узнаете о том, как были открыты новые классы химических соединений, которые запрещены классической химией, но оказываются устойчивыми под давлением и могут существовать в недрах планет, и о сложной и крайне разнообразной химии азота под давлением. А также о многих других, не менее интересных вещах.
    Продолжительность: 01: 13: 55
    Качество видео: WEBRip
    Субтитры: Отсутствуют
    Видео: AVC/H.264, 1280x720, ~856 Kbps
    Аудио: AAC, 2 ch, 126 Kbps

    Общее
    Полное имя : C: А.Р. Аганов. Лекция Предсказательная кристаллография новые материалы и новые химические явления.MP4
    Формат : MPEG-4
    Профиль формата : Base Media/Version 2
    Идентификатор кодека : mp42 (isom/mp42)
    Размер файла : 520 Мбайт
    Продолжительность : 1 ч. 13 м.
    Режим общего битрейта : Переменный
    Общий поток : 984 Кбит/сек
    Дата кодирования : UTC 2017-04-01 07: 04: 55
    Дата пометки : UTC 2017-04-01 07: 04: 55
    gsst : 0
    gstd : 4435382
    Видео
    Идентификатор : 1
    Формат : AVC
    Формат/Информация : Advanced Video Codec
    Профиль формата : Main@L3.1
    Настройки формата : CABAC/3 Ref Frames
    Параметр CABAC формата : Да
    Параметр RefFrames формата : 3 кадра
    Идентификатор кодека : avc1
    Идентификатор кодека/Информация : Advanced Video Coding
    Продолжительность : 1 ч. 13 м.
    Битрейт : 856 Кбит/сек
    Ширина : 1280 пикселей
    Высота : 720 пикселей
    Соотношение сторон : 16: 9
    Режим частоты кадров : Постоянный
    Частота кадров : 25, 000 кадров/сек
    Цветовое пространство : YUV
    Субдискретизация насыщенности : 4: 2: 0
    Битовая глубина : 8 бит
    Тип развёртки : Прогрессивная
    Бит/(Пиксели*Кадры) : 0.037
    Размер потока : 452 Мбайт (87%)
    Заголовок : ISO Media file produced by Google Inc.
    Дата кодирования : UTC 2017-04-01 07: 04: 55
    Дата пометки : UTC 2017-04-01 07: 04: 55
    Цветовой диапазон : Limited
    Основные цвета : BT.709
    Характеристики трансфера : BT.709
    Коэффициенты матрицы : BT.709
    Аудио
    Идентификатор : 2
    Формат : AAC
    Формат/Информация : Advanced Audio Codec
    Профиль формата : LC
    Идентификатор кодека : mp4a-40-2
    Продолжительность : 1 ч. 13 м.
    Вид битрейта : Переменный
    Битрейт : 126 Кбит/сек
    Каналы : 2 канала
    Расположение каналов : Front: L R
    Частота : 44, 1 КГц
    Частота кадров : 43, 066 кадра/сек (1024 SPF)
    Метод сжатия : С потерями
    Размер потока : 66, 4 Мбайт (13%)
    Оганов Артем Ромаевич, химик, материаловед, профессор Сколтеха, Ph.D. в кристаллографии University College London, доктор наук (Habilitation) Швейцарского Федерального политехнического института в Цюрихе, профессор Университета штата Нью-Йорк.
    Скриншоты:


    А.Р. Аганов на трекере NNM-Club
    Время раздачи: по возможности (до появления первых 3-5 скачавших)


    А.Р. Аганов. Лекция «Предсказательная кристаллография: новые материалы и новые химические явления» (2017) WEBRip [H.264] [MP4|1280x720]
    загрузка...
    Рейтинг →
     (голосов: 1, оценка 3/5, голосовать можно 1 раз )

    Другие торренты по теме:

  • А.Р. Аганов. Лекция «Запрещенная химия» (2016) WEBRip [H.264] [MP4|1920х1080]


    • Комментарии (0):

      Информация

      Информация

        Посетители, находящиеся в группе Гости, не могут оставлять комментарии в данной новости.

        ↓ Меню




        ↓ Опрос

        Вы добавили сайт в закладки?
        Да
        Нет


        Top 10 за месяц (КПК и мобильные)