.
Авторизация | Регистрация
Хочешь лучшие торренты? Добавь свой email!
Добавить

Торрент скачать бесплатно

» » Любой ценой / Hell or High Water (2016) HDRip [H.264] [MP4|1920x798] торрент скачать бесплатно




    Любой ценой / Hell or High Water (2016) HDRip [H.264] [MP4|1920x798] торрент скачать бесплатно

    Опубликовал: Админ | Дата: 5-11-2017, 05:01 | Просмотров: 0

    Производство: США/Film 44, Odd Lot Entertainment, Sidney Kimmel Entertainment
    Жанр: Драма, Криминал
    Режиссер: Дэвид Маккензи
    Продюсер: Питер Берг, Карла Хэкен, Сидни Киммел
    Актеры: Джефф Бриджес, Крис Пайн, Бен Фостер, Джил Бирмингем, Дейл Дикки, Уильям Стерчи, Бак Тейлор, Кристин Берг Кит Мэривезер Жакмо Буззел

    Описание

    Два брата-лузера решают наведаться в хранилища пары-тройки банков, которые много лет безбожно обкрадывают своих должников. Расследование дерзких ограблений с грубым почерком увенчает карьеру шерифа Маркуса. Но куда выведет это нехитрое дело?

    Возраст: 16+ (зрителям, достигшим 16 лет)
    Рейтинг MPAA: R (лицам до 17 лет обязательно присутствие взрослого)
    Дата мировой премьеры: 16 мая 2016
    Дата российской премьеры: 18 августа 2016, Парадиз
    Дата выхода DVD/Blu-ray релиза: 21 ноября 2016, Парадиз
    Продолжительность: 01: 42: 15
    Качество видео: HDRip
    Перевод: Дублированный (iTunes)
    Субтитры: отсутствуют
    Видео: AVC/H.264, 1920x798, ~1932 Kbps
    Аудио: AC3, 6 ch, 384 kbps

    Общее
    Полное имя : E: DownloadЛюбой ценой 2016 1080p.mp4
    Формат : MPEG-4
    Профиль формата : Base Media
    Идентификатор кодека : isom (isom/avc1/iso6)
    Размер файла : 1, 66 Гбайт
    Продолжительность : 1 ч. 42 м.
    Общий поток : 2318 Кбит/сек
    Дата кодирования : UTC 2017-11-04 06: 52: 13
    Дата пометки : UTC 2017-11-04 06: 52: 13
    Видео
    Идентификатор : 1
    Формат : AVC
    Формат/Информация : Advanced Video Codec
    Профиль формата : High@L4
    Настройки формата : CABAC/2 Ref Frames
    Параметр CABAC формата : Да
    Параметр RefFrames формата : 2 кадра
    Идентификатор кодека : avc1
    Идентификатор кодека/Информация : Advanced Video Coding
    Продолжительность : 1 ч. 42 м.
    Битрейт : 1932 Кбит/сек
    Максимальный битрейт : 5739 Кбит/сек
    Ширина : 1920 пикселей
    Высота : 798 пикселей
    Соотношение сторон : 2, 40: 1
    Режим частоты кадров : Постоянный
    Частота кадров : 23, 976 (24000/1001) кадра/сек
    Цветовое пространство : YUV
    Субдискретизация насыщенности : 4: 2: 0
    Битовая глубина : 8 бит
    Тип развёртки : Прогрессивная
    Бит/(Пиксели*Кадры) : 0.053
    Размер потока : 1, 38 Гбайт (83%)
    Дата кодирования : UTC 2017-11-04 06: 52: 13
    Дата пометки : UTC 2017-11-04 06: 54: 09
    Цветовой диапазон : Limited
    Основные цвета : BT.709
    Характеристики трансфера : BT.709
    Коэффициенты матрицы : BT.709
    Аудио
    Идентификатор : 2
    Формат : AC-3
    Формат/Информация : Audio Coding 3
    Параметр Endianness формата : Big
    Идентификатор кодека : ac-3
    Продолжительность : 1 ч. 42 м.
    Вид битрейта : Постоянный
    Битрейт : 384 Кбит/сек
    Максимальный битрейт : 406 Кбит/сек
    Каналы : 6 каналов
    Расположение каналов : Front: L C R, Side: L R, LFE
    Частота : 48, 0 КГц
    Частота кадров : 31, 250 кадров/сек (1536 SPF)
    Битовая глубина : 16 бит
    Метод сжатия : С потерями
    Размер потока : 281 Мбайт (17%)
    Заголовок : Дублированный (iTunes)
    Язык : Russian
    ServiceKind/String : Complete Main
    Дата кодирования : UTC 2017-11-04 06: 53: 32
    Дата пометки : UTC 2017-11-04 06: 54: 09
    Скриншоты:


    Все одноименные релизы в Клубе
    Время раздачи: с 10: 00 до 22: 00 (до появления первых 3-5 скачавших)


    Любой ценой/Hell or High Water (2016) HDRip [H.264] [MP4|1920x798]
    загрузка...
    Рейтинг →
     (голосов: 1, оценка 3/5, голосовать можно 1 раз )

    Другие торренты по теме:

  • Париж любой ценой / Paris a tout prix (2013) BDRip [720p]
  • Любой ценой / Ad ogni costo (1967) DVDRip [H.264] скачать через торрент бесплатно
  • Замуж любой ценой / With This Ring (2015) WEB-DL [H.264 / 1080p-LQ] скачать через торрент бесплатно
  • Замуж любой ценой / With This Ring (2015) WEB-DLRip скачать через торрент бесплатно
  • Любой ценой (1959) VHSRip скачать через торрент бесплатно
  • Любой ценой / Hell or High Water (2016) WEB-DLRip
  • Любой ценой / Hell or High Water (2016) WEB-DL [H.264 / 1080p-LQ]
  • Любой ценой / Hell or High Water (2016) WEB-DLRip [H.264] [MP4|1024x428]


    • Комментарии (0):

      Информация

      Информация

        Посетители, находящиеся в группе Гости, не могут оставлять комментарии в данной новости.

        ↓ Меню




        ↓ Опрос

        Вы добавили сайт в закладки?
        Да
        Нет


        Top 10 за месяц (КПК и мобильные)