.
Авторизация | Регистрация
Хочешь лучшие торренты? Добавь свой email!
Добавить

Торрент скачать бесплатно

» » Любой ценой / Hell or High Water (2016) HDRip [H.264] [MP4|1280x532] торрент скачать бесплатно




    Любой ценой / Hell or High Water (2016) HDRip [H.264] [MP4|1280x532] торрент скачать бесплатно

    Опубликовал: Админ | Дата: 5-11-2017, 05:01 | Просмотров: 0

    Производство: США/Film 44, Odd Lot Entertainment, Sidney Kimmel Entertainment
    Жанр: Драма, Криминал
    Режиссер: Дэвид Маккензи
    Продюсер: Питер Берг, Карла Хэкен, Сидни Киммел
    Актеры: Джефф Бриджес, Крис Пайн, Бен Фостер, Джил Бирмингем, Дейл Дикки, Уильям Стерчи, Бак Тейлор, Кристин Берг Кит Мэривезер Жакмо Буззел

    Описание

    Два брата-лузера решают наведаться в хранилища пары-тройки банков, которые много лет безбожно обкрадывают своих должников. Расследование дерзких ограблений с грубым почерком увенчает карьеру шерифа Маркуса. Но куда выведет это нехитрое дело?

    Возраст: 16+ (зрителям, достигшим 16 лет)
    Рейтинг MPAA: R (лицам до 17 лет обязательно присутствие взрослого)
    Дата мировой премьеры: 16 мая 2016
    Дата российской премьеры: 18 августа 2016, Парадиз
    Дата выхода DVD/Blu-ray релиза: 21 ноября 2016, Парадиз
    Продолжительность: 01: 42: 15
    Качество видео: HDRip
    Перевод: Дублированный (iTunes)
    Субтитры: отсутствуют
    Видео: AVC/H.264, 1280x532, ~1281 Kbps
    Аудио: AAC, 2 ch, ~192 kbps

    Общее
    Полное имя : E: DownloadЛюбой ценой 2016 720p.mp4
    Формат : MPEG-4
    Профиль формата : Base Media
    Идентификатор кодека : isom (isom)
    Размер файла : 1, 05 Гбайт
    Продолжительность : 1 ч. 42 м.
    Режим общего битрейта : Переменный
    Общий поток : 1476 Кбит/сек
    Дата кодирования : UTC 2017-11-04 07: 12: 26
    Дата пометки : UTC 2017-11-04 07: 12: 26
    Видео
    Идентификатор : 1
    Формат : AVC
    Формат/Информация : Advanced Video Codec
    Профиль формата : High@L3.1
    Настройки формата : CABAC/1 Ref Frames
    Параметр CABAC формата : Да
    Параметр RefFrames формата : 1 кадр
    Идентификатор кодека : avc1
    Идентификатор кодека/Информация : Advanced Video Coding
    Продолжительность : 1 ч. 42 м.
    Битрейт : 1281 Кбит/сек
    Максимальный битрейт : 5021 Кбит/сек
    Ширина : 1280 пикселей
    Высота : 532 пикселя
    Соотношение сторон : 2, 40: 1
    Режим частоты кадров : Постоянный
    Частота кадров : 23, 976 (24000/1001) кадра/сек
    Цветовое пространство : YUV
    Субдискретизация насыщенности : 4: 2: 0
    Битовая глубина : 8 бит
    Тип развёртки : Прогрессивная
    Бит/(Пиксели*Кадры) : 0.078
    Размер потока : 937 Мбайт (87%)
    Дата пометки : UTC 2017-11-04 07: 15: 33
    Цветовой диапазон : Limited
    Основные цвета : BT.709
    Характеристики трансфера : BT.709
    Коэффициенты матрицы : BT.709
    Аудио
    Идентификатор : 2
    Формат : AAC
    Формат/Информация : Advanced Audio Codec
    Профиль формата : LC
    Идентификатор кодека : mp4a-40-2
    Продолжительность : 1 ч. 42 м.
    Вид битрейта : Переменный
    Битрейт : 192 Кбит/сек
    Максимальный битрейт : 201 Кбит/сек
    Каналы : 2 канала
    Расположение каналов : Front: L R
    Частота : 44, 1 КГц
    Частота кадров : 43, 066 кадра/сек (1024 SPF)
    Метод сжатия : С потерями
    Размер потока : 140 Мбайт (13%)
    Язык : Russian
    Дата кодирования : UTC 2017-11-03 14: 20: 40
    Дата пометки : UTC 2017-11-04 07: 15: 33
    Скриншоты:


    Все одноименные релизы в Клубе
    Время раздачи: с 10: 00 до 22: 00 (до появления первых 3-5 скачавших)


    Любой ценой/Hell or High Water (2016) HDRip [H.264] [MP4|1280x532]
    загрузка...
    Рейтинг →
     (голосов: 1, оценка 5/5, голосовать можно 1 раз )

    Другие торренты по теме:

  • Париж любой ценой / Paris a tout prix (2013) BDRip [720p]
  • Любой ценой / Ad ogni costo (1967) DVDRip [H.264] скачать через торрент бесплатно
  • Замуж любой ценой / With This Ring (2015) WEB-DL [H.264 / 1080p-LQ] скачать через торрент бесплатно
  • Замуж любой ценой / With This Ring (2015) WEB-DLRip скачать через торрент бесплатно
  • Любой ценой (1959) VHSRip скачать через торрент бесплатно
  • Любой ценой / Hell or High Water (2016) WEB-DLRip
  • Любой ценой / Hell or High Water (2016) WEB-DL [H.264 / 1080p-LQ]
  • Любой ценой / Hell or High Water (2016) WEB-DLRip [H.264] [MP4|1024x428]


    • Комментарии (0):

      Информация

      Информация

        Посетители, находящиеся в группе Гости, не могут оставлять комментарии в данной новости.

        ↓ Меню




        ↓ Опрос

        Вы добавили сайт в закладки?
        Да
        Нет


        Top 10 за месяц (КПК и мобильные)