.
Авторизация | Регистрация
Хочешь лучшие торренты? Добавь свой email!
Добавить

Торрент скачать бесплатно

» » Великолепная семерка / The Magnificent Seven (2016) HDRip [H.264] [MP4|1280x536] торрент скачать бесплатно




    Великолепная семерка / The Magnificent Seven (2016) HDRip [H.264] [MP4|1280x536] торрент скачать бесплатно

    Опубликовал: Админ | Дата: 3-11-2017, 05:00 | Просмотров: 0

    Производство: США/Columbia Pictures, Escape Artists, LStar Capital, Metro-Goldwyn-Mayer, Pin High Productions, Village Roadshow Pictures
    Жанр: Боевик, Приключения, Вестерн
    Режиссер: Антуан Фукуа
    Продюсер: Роджер Бирнбаум, Тодд Блэк, Брюс Берман
    Актеры: Дензел Вашингтон, Крис Пратт, Итан Хоук, Винсент Д’Онофрио, Ли Бён-хон, Мануэль Рульфо, Мартин Сенсмейер, Хейли Беннетт, Питер Сарсгаард, Люк Граймс, Мэтт Бомер, Джонатан Джосс, Кэм Жиганде, Эмиль Бехешти, Марк Эшворт, Дэйн Родс

    Описание

    Семеро отважных искателей приключений встают на защиту жителей маленького городка, угнетаемого бандой грабителей.

    Возраст: 16+ (зрителям, достигшим 16 лет)
    Рейтинг MPAA: PG-13 (детям до 13 лет просмотр нежелателен)
    Дата мировой премьеры: 8 сентября 2016
    Дата российской премьеры: 22 сентября 2016, WDSSPR
    Продолжительность: 02: 12: 50
    Качество видео: HDRip
    Перевод: Дублированный (Blu-ray CEE)
    Субтитры: отсутствуют
    Видео: AVC/H.264, 1280x536, ~1458 Kbps
    Аудио: AAC, 2 ch, ~192 kbps

    Общее
    Полное имя : E: DownloadВеликолепная семерка 2016 720p.mp4
    Формат : MPEG-4
    Профиль формата : Base Media
    Идентификатор кодека : isom (isom)
    Размер файла : 1, 53 Гбайт
    Продолжительность : 2 ч. 12 м.
    Режим общего битрейта : Переменный
    Общий поток : 1652 Кбит/сек
    Дата кодирования : UTC 2017-10-31 07: 44: 11
    Дата пометки : UTC 2017-10-31 07: 44: 11
    Видео
    Идентификатор : 1
    Формат : AVC
    Формат/Информация : Advanced Video Codec
    Профиль формата : High@L3.1
    Настройки формата : CABAC/1 Ref Frames
    Параметр CABAC формата : Да
    Параметр RefFrames формата : 1 кадр
    Параметр GOP формата : M=1, N=60
    Идентификатор кодека : avc1
    Идентификатор кодека/Информация : Advanced Video Coding
    Продолжительность : 2 ч. 12 м.
    Продолжительность оригинала : 2 ч. 12 м.
    Битрейт : 1458 Кбит/сек
    Максимальный битрейт : 6071 Кбит/сек
    Ширина : 1280 пикселей
    Высота : 536 пикселей
    Соотношение сторон : 2, 40: 1
    Режим частоты кадров : Постоянный
    Частота кадров : 23, 976 (24000/1001) кадра/сек
    Цветовое пространство : YUV
    Субдискретизация насыщенности : 4: 2: 0
    Битовая глубина : 8 бит
    Тип развёртки : Прогрессивная
    Бит/(Пиксели*Кадры) : 0.089
    Размер потока : 1, 35 Гбайт (88%)
    Размер потока оригинала : 1, 35 Гбайт (88%)
    Дата пометки : UTC 2017-10-31 07: 49: 06
    Цветовой диапазон : Limited
    Основные цвета : BT.709
    Характеристики трансфера : BT.709
    Коэффициенты матрицы : BT.709
    Аудио
    Идентификатор : 2
    Формат : AAC
    Формат/Информация : Advanced Audio Codec
    Профиль формата : LC
    Идентификатор кодека : mp4a-40-2
    Продолжительность : 2 ч. 12 м.
    Вид битрейта : Переменный
    Битрейт : 192 Кбит/сек
    Максимальный битрейт : 201 Кбит/сек
    Каналы : 2 канала
    Расположение каналов : Front: L R
    Частота : 44, 1 КГц
    Частота кадров : 43, 066 кадра/сек (1024 SPF)
    Метод сжатия : С потерями
    Размер потока : 182 Мбайт (12%)
    Язык : Russian
    Дата кодирования : UTC 2017-10-31 06: 27: 35
    Дата пометки : UTC 2017-10-31 07: 49: 06
    Скриншоты:


    Все одноименные релизы в Клубе
    Время раздачи: с 10: 00 до 22: 00 (до появления первых 3-5 скачавших)


    Великолепная семерка/The Magnificent Seven (2016) HDRip [H.264] [MP4|1280x536]
    загрузка...
    Рейтинг →
     (голосов: 1, оценка 4/5, голосовать можно 1 раз )

    Другие торренты по теме:

  • Великолепная семерка: Квадрология / The Magnificent Seven: Quadrilogy (1960 - 1972) BDRip [H.264 / 1080p] скачать через торрент бесплатно
  • Великолепная семерка снова в седле / The Magnificent Seven Ride! (1972) BDRip [H.264 / 720р-LQ]
  • Великолепная семерка / The Magnificent Seven (1960) BDRip [H.264 / 720р-LQ]
  • Великолепная семерка / The Magnificent Seven (2016) WEBRip [H.264 / 1080p] [Трейлер]
  • Великолепная семерка / The Magnificent Seven (2016) TS
  • Великолепная семерка / The Magnificent Seven (2016) BDRip [H.264 / 720p] [EN / EN Sub]
  • Великолепная семерка / The Magnificent Seven (2016) BDRip [H.264 / 1080p] [EN / EN Sub]
  • Великолепная семерка / The Magnificent Seven (2016) BDRip [H.264 / 720p] [звук с TS]


    • Комментарии (0):

      Информация

      Информация

        Посетители, находящиеся в группе Гости, не могут оставлять комментарии в данной новости.

        ↓ Меню




        ↓ Опрос

        Вы добавили сайт в закладки?
        Да
        Нет


        Top 10 за месяц (КПК и мобильные)