.
Авторизация | Регистрация
Хочешь лучшие торренты? Добавь свой email!
Добавить

Торрент скачать бесплатно

» » Люди Икс: Апокалипсис / X-Men: Apocalypse (2016) HDRip [H.264] [MP4|1280x534] торрент скачать бесплатно




    Люди Икс: Апокалипсис / X-Men: Apocalypse (2016) HDRip [H.264] [MP4|1280x534] торрент скачать бесплатно

    Опубликовал: Админ | Дата: 31-10-2017, 05:00 | Просмотров: 0

    Производство: США/20th Century Fox Film Corporation, Bad Hat Harry Productions, Donners\' Company
    Жанр: Фантастика, Боевик, Приключения
    Режиссер: Брайан Сингер
    Продюсер: Саймон Кинберг, Хатч Паркер, Лорен Шулер Доннер
    Актеры: Джеймс МакЭвой, Майкл Фассбендер, Дженнифер Лоуренс, Эван Питерс, Оливия Манн, Роуз Бирн, Оскар Айзек, Софи Тёрнер, Николас Холт, Тай Шеридан, Бен Харди

    Описание

    События Дней Минувшего Будущего оказали колоссальное влияние на мир, где мутанты и люди борются за свое место под Солнцем. В это нелегкое время Людям Икс предстоит столкнуться со своим самым опасным противником — древним мутантом Апокалипсисом, существом, схватка с которым может стать последней не только для мутантов, но и в принципе для всего человечества. В поисках способа победы над неуязвимым и бессмертным монстром Людям Икс предстоит узнать больше о происхождении своего вида. Но Апокалипсис неимоверно силен, и вероятность победы все уменьшается, ведь он твердо убежден, что только сильнейшие имеют право на выживание…

    Возраст: 12+ (зрителям, достигшим 12 лет)
    Рейтинг MPAA: PG-13 (детям до 13 лет просмотр нежелателен)
    Дата мировой премьеры: 9 мая 2016
    Дата российской премьеры: 19 мая 2016, Двадцатый Век Фокс СНГ 3D
    Продолжительность: 02: 23: 56
    Качество видео: HDRip
    Перевод: Дублированный (Лицензия BD EUR)
    Субтитры: Русские (форсированные, полные), Английские (форсированные, полные)
    Видео: AVC/H.264, 1280x534, ~1308 Kbps
    Аудио: AAC, 2 ch, ~192 kbps

    Общее
    Полное имя : E: DownloadЛюди Икс Апокалипсис 2016 720p.mp4
    Формат : MPEG-4
    Профиль формата : Base Media
    Идентификатор кодека : isom (isom)
    Размер файла : 1, 51 Гбайт
    Продолжительность : 2 ч. 23 м.
    Режим общего битрейта : Переменный
    Общий поток : 1503 Кбит/сек
    Дата кодирования : UTC 2017-10-30 10: 15: 27
    Дата пометки : UTC 2017-10-30 10: 15: 27
    Видео
    Идентификатор : 1
    Формат : AVC
    Формат/Информация : Advanced Video Codec
    Профиль формата : High@L3.1
    Настройки формата : CABAC/1 Ref Frames
    Параметр CABAC формата : Да
    Параметр RefFrames формата : 1 кадр
    Идентификатор кодека : avc1
    Идентификатор кодека/Информация : Advanced Video Coding
    Продолжительность : 2 ч. 23 м.
    Битрейт : 1308 Кбит/сек
    Максимальный битрейт : 5773 Кбит/сек
    Ширина : 1280 пикселей
    Высота : 534 пикселя
    Соотношение сторон : 2, 40: 1
    Режим частоты кадров : Постоянный
    Частота кадров : 23, 976 (24000/1001) кадра/сек
    Цветовое пространство : YUV
    Субдискретизация насыщенности : 4: 2: 0
    Битовая глубина : 8 бит
    Тип развёртки : Прогрессивная
    Бит/(Пиксели*Кадры) : 0.080
    Размер потока : 1, 32 Гбайт (87%)
    Дата пометки : UTC 2017-10-30 10: 33: 07
    Цветовой диапазон : Limited
    Основные цвета : BT.709
    Характеристики трансфера : BT.709
    Коэффициенты матрицы : BT.709
    Аудио
    Идентификатор : 2
    Формат : AAC
    Формат/Информация : Advanced Audio Codec
    Профиль формата : LC
    Идентификатор кодека : mp4a-40-2
    Продолжительность : 2 ч. 23 м.
    Вид битрейта : Переменный
    Битрейт : 192 Кбит/сек
    Максимальный битрейт : 202 Кбит/сек
    Каналы : 2 канала
    Расположение каналов : Front: L R
    Частота : 44, 1 КГц
    Частота кадров : 43, 066 кадра/сек (1024 SPF)
    Метод сжатия : С потерями
    Размер потока : 198 Мбайт (13%)
    Язык : Russian
    Дата кодирования : UTC 2017-10-30 07: 14: 53
    Дата пометки : UTC 2017-10-30 10: 33: 07
    Текст #1
    Идентификатор : 3
    Формат : Timed Text
    Идентификатор кодека : tx3g
    Продолжительность : 1 ч. 29 м.
    Вид битрейта : Переменный
    Битрейт : 5 бит/сек
    Размер потока : 3, 50 Кбайт (0%)
    Заголовок : Forced
    Язык : Russian
    Forced : Нет
    Дата кодирования : UTC 2017-10-30 10: 33: 07
    Дата пометки : UTC 2017-10-30 10: 33: 07
    Текст #2
    Идентификатор : 4
    Формат : Timed Text
    Идентификатор кодека : tx3g
    Продолжительность : 2 ч. 23 м.
    Вид битрейта : Переменный
    Битрейт : 61 бит/сек
    Размер потока : 64, 6 Кбайт (0%)
    Заголовок : Full
    Язык : Russian
    Forced : Нет
    Дата кодирования : UTC 2017-10-30 10: 33: 07
    Дата пометки : UTC 2017-10-30 10: 33: 07
    Текст #3
    Идентификатор : 5
    Формат : Timed Text
    Идентификатор кодека : tx3g
    Продолжительность : 1 ч. 29 м.
    Вид битрейта : Переменный
    Битрейт : 4 бит/сек
    Размер потока : 2, 31 Кбайт (0%)
    Заголовок : Forced
    Язык : English
    Forced : Нет
    Дата кодирования : UTC 2017-10-30 10: 33: 07
    Дата пометки : UTC 2017-10-30 10: 33: 07
    Текст #4
    Идентификатор : 6
    Формат : Timed Text
    Идентификатор кодека : tx3g
    Продолжительность : 2 ч. 13 м.
    Вид битрейта : Переменный
    Битрейт : 44 бит/сек
    Размер потока : 43, 0 Кбайт (0%)
    Заголовок : Full
    Язык : English
    Forced : Нет
    Дата кодирования : UTC 2017-10-30 10: 33: 07
    Дата пометки : UTC 2017-10-30 10: 33: 07
    Скриншоты:


    Все одноименные релизы в Клубе
    Время раздачи: с 10: 00 до 22: 00 (до появления первых 3-5 скачавших)


    Люди Икс: Апокалипсис/X-Men: Apocalypse (2016) HDRip [H.264] [MP4|1280x534]
    загрузка...
    Рейтинг →
     (голосов: 1, оценка 3/5, голосовать можно 1 раз )

    Другие торренты по теме:

  • Люди Икс: Апокалипсис / X-Men: Apocalypse (2016) WEBRip [H.264 / 1080p] [Трейлер] скачать через торрент бесплатно
  • Люди Икс: Апокалипсис / X-Men: Apocalypse (2016) WEBRip [H.264 / 1080p] [Трейлер#2]
  • Люди Икс: Апокалипсис / X-Men: Apocalypse (2016) WEBRip [H.264 / 1080p] [Трейлер#3]
  • Люди Икс: Апокалипсис / X-Men: Apocalypse (2016) CamRip (PROPER)
  • Люди Икс: Апокалипсис / X-Men: Apocalypse (2016) CamRip
  • Люди Икс: Апокалипсис / X-Men: Apocalypse (2016) TS
  • Люди Икс: Апокалипсис / X-Men: Apocalypse (2016) TS
  • Люди Икс: Апокалипсис / X-Men: Apocalypse (2016) CamRip [MP4|624x272] [EN]


    • Комментарии (0):

      Информация

      Информация

        Посетители, находящиеся в группе Гости, не могут оставлять комментарии в данной новости.

        ↓ Меню




        ↓ Опрос

        Вы добавили сайт в закладки?
        Да
        Нет


        Top 10 за месяц (КПК и мобильные)