.
Авторизация | Регистрация
Хочешь лучшие торренты? Добавь свой email!
Добавить

Торрент скачать бесплатно

» » Сноуден / Snowden (2016) HDRip [H.264] [MP4|1920x800] торрент скачать бесплатно




    Сноуден / Snowden (2016) HDRip [H.264] [MP4|1920x800] торрент скачать бесплатно

    Опубликовал: Админ | Дата: 30-10-2017, 05:00 | Просмотров: 0

    Производство: Франция, Германия, США, Endgame Entertainment, KrautPack Entertainment, Vendian Entertainment
    Жанр: Триллер, Драма, Биография
    Режиссер: Оливер Стоун
    Продюсер: Мориц Борман, Эрик Копелофф, Филип Шульц-Дейле
    Актеры: Джозеф Гордон-Левитт, Шейлин Вудли, Мелисса Лео, Закари Куинто, Том Уилкинсон, Скотт Иствуд, Рис Иванс, Николас Кейдж, Тимоти Олифант, Джеймс Батлер, Роберт Фёрт, Рэйчел Хэндшоу

    Описание

    Он мечтал продолжить семейную традицию и посвятить свою жизнь служению Родине. Он безоговорочно верил в правительство США и поддерживал антитеррористическую программу. На заре его карьеры в спецслужбах никто, даже он сам, не мог бы предположить, что именно он, Эдвард Сноуден, совершит самое крупное разоблачение в мировой истории, обнародовав секретные документы, касающиеся тотальной слежки США за своими гражданами и гражданами других государств. Открыв миру глаза на правду, он навсегда закрыл для себя двери в счастливое будущее: отказался от карьеры, любимой девушки и Родины, которая назвала его предателем...

    Возраст: 16+ (зрителям, достигшим 16 лет)
    Рейтинг MPAA: R (лицам до 17 лет обязательно присутствие взрослого)
    Дата мировой премьеры: 21 июля 2016
    Дата российской премьеры: 15 сентября 2016
    Продолжительность: 02: 14: 49
    Качество видео: HDRip
    Перевод: Дублированный (iTunes)
    Субтитры: отсутствуют
    Видео: AVC/H.264, 1920x800, ~2023 Kbps
    Аудио: AC3, 6 ch, 384 kbps

    Общее
    Полное имя : E: DownloadSnowden 2016 1080p.mp4
    Формат : MPEG-4
    Профиль формата : Base Media
    Идентификатор кодека : isom (isom/avc1/iso6)
    Размер файла : 2, 27 Гбайт
    Продолжительность : 2 ч. 14 м.
    Общий поток : 2409 Кбит/сек
    Дата кодирования : UTC 2017-10-29 08: 11: 50
    Дата пометки : UTC 2017-10-29 08: 11: 50
    Видео
    Идентификатор : 1
    Формат : AVC
    Формат/Информация : Advanced Video Codec
    Профиль формата : High@L4
    Настройки формата : CABAC/2 Ref Frames
    Параметр CABAC формата : Да
    Параметр RefFrames формата : 2 кадра
    Идентификатор кодека : avc1
    Идентификатор кодека/Информация : Advanced Video Coding
    Продолжительность : 2 ч. 14 м.
    Битрейт : 2023 Кбит/сек
    Максимальный битрейт : 7708 Кбит/сек
    Ширина : 1920 пикселей
    Высота : 800 пикселей
    Соотношение сторон : 2, 40: 1
    Режим частоты кадров : Постоянный
    Частота кадров : 23, 976 (24000/1001) кадра/сек
    Цветовое пространство : YUV
    Субдискретизация насыщенности : 4: 2: 0
    Битовая глубина : 8 бит
    Тип развёртки : Прогрессивная
    Бит/(Пиксели*Кадры) : 0.055
    Размер потока : 1, 90 Гбайт (84%)
    Дата кодирования : UTC 2017-10-29 08: 11: 50
    Дата пометки : UTC 2017-10-29 08: 17: 16
    Цветовой диапазон : Limited
    Основные цвета : BT.709
    Характеристики трансфера : BT.709
    Коэффициенты матрицы : BT.709
    Аудио
    Идентификатор : 2
    Формат : AC-3
    Формат/Информация : Audio Coding 3
    Параметр Endianness формата : Big
    Идентификатор кодека : ac-3
    Продолжительность : 2 ч. 14 м.
    Вид битрейта : Постоянный
    Битрейт : 384 Кбит/сек
    Максимальный битрейт : 406 Кбит/сек
    Каналы : 6 каналов
    Расположение каналов : Front: L C R, Side: L R, LFE
    Частота : 48, 0 КГц
    Частота кадров : 31, 250 кадров/сек (1536 SPF)
    Битовая глубина : 16 бит
    Метод сжатия : С потерями
    Размер потока : 370 Мбайт (16%)
    Заголовок : Дублированный (iTunes)
    Язык : Russian
    ServiceKind/String : Complete Main
    Дата кодирования : UTC 2017-10-29 08: 16: 33
    Дата пометки : UTC 2017-10-29 08: 17: 16
    Скриншоты:


    Все одноименные релизы в Клубе
    Время раздачи: с 10: 00 до 22: 00 (до появления первых 3-5 скачавших)


    Сноуден/Snowden (2016) HDRip [H.264] [MP4|1920x800]
    загрузка...
    Рейтинг →
     (голосов: 1, оценка 3/5, голосовать можно 1 раз )

    Другие торренты по теме:

  • Сноуден / Snowden (2016) CamRip
  • Сноуден / Snowden (2016) WEB-DLRip [Звук с CamRip]
  • Сноуден / Snowden (2016) WEB-DL [H.264 / 1080p-LQ] [Звук с CamRip]
  • Сноуден / Snowden (2016) WEB-DLRip [Звук с CamRip]
  • Сноуден / Snowden (2016) WEB-DL [H.264 / 1080p-LQ] [EN]
  • Сноуден / Snowden (2016) WEB-DL [H.264 / 1080p-LQ] [Line с CAMRip]
  • Сноуден / Snowden (2016) WEB-DLRip [Line с CAMRip]
  • Сноуден / Snowden (2016) WEB-DL [H.264 / 1080p-LQ] [Line]


    • Комментарии (0):

      Информация

      Информация

        Посетители, находящиеся в группе Гости, не могут оставлять комментарии в данной новости.

        ↓ Меню




        ↓ Опрос

        Вы добавили сайт в закладки?
        Да
        Нет


        Top 10 за месяц (КПК и мобильные)