.
Авторизация | Регистрация
Хочешь лучшие торренты? Добавь свой email!
Добавить

Торрент скачать бесплатно

» » Сноуден / Snowden (2016) HDRip [H.264] [MP4|1280x534] торрент скачать бесплатно




    Сноуден / Snowden (2016) HDRip [H.264] [MP4|1280x534] торрент скачать бесплатно

    Опубликовал: Админ | Дата: 30-10-2017, 05:00 | Просмотров: 0

    Производство: Франция, Германия, США, Endgame Entertainment, KrautPack Entertainment, Vendian Entertainment
    Жанр: Триллер, Драма, Биография
    Режиссер: Оливер Стоун
    Продюсер: Мориц Борман, Эрик Копелофф, Филип Шульц-Дейле
    Актеры: Джозеф Гордон-Левитт, Шейлин Вудли, Мелисса Лео, Закари Куинто, Том Уилкинсон, Скотт Иствуд, Рис Иванс, Николас Кейдж, Тимоти Олифант, Джеймс Батлер, Роберт Фёрт, Рэйчел Хэндшоу

    Описание

    Он мечтал продолжить семейную традицию и посвятить свою жизнь служению Родине. Он безоговорочно верил в правительство США и поддерживал антитеррористическую программу. На заре его карьеры в спецслужбах никто, даже он сам, не мог бы предположить, что именно он, Эдвард Сноуден, совершит самое крупное разоблачение в мировой истории, обнародовав секретные документы, касающиеся тотальной слежки США за своими гражданами и гражданами других государств. Открыв миру глаза на правду, он навсегда закрыл для себя двери в счастливое будущее: отказался от карьеры, любимой девушки и Родины, которая назвала его предателем...

    Возраст: 16+ (зрителям, достигшим 16 лет)
    Рейтинг MPAA: R (лицам до 17 лет обязательно присутствие взрослого)
    Дата мировой премьеры: 21 июля 2016
    Дата российской премьеры: 15 сентября 2016
    Продолжительность: 02: 14: 49
    Качество видео: HDRip
    Перевод: Дублированный (iTunes)
    Субтитры: отсутствуют
    Видео: AVC/H.264, 1280x534, ~1266 Kbps
    Аудио: AAC, 2 ch, ~192 kbps

    Общее
    Полное имя : E: DownloadSnowden 2016 720p.mp4
    Формат : MPEG-4
    Профиль формата : Base Media
    Идентификатор кодека : isom (isom)
    Размер файла : 1, 38 Гбайт
    Продолжительность : 2 ч. 14 м.
    Режим общего битрейта : Переменный
    Общий поток : 1460 Кбит/сек
    Дата кодирования : UTC 2017-10-29 07: 51: 00
    Дата пометки : UTC 2017-10-29 07: 51: 00
    Видео
    Идентификатор : 1
    Формат : AVC
    Формат/Информация : Advanced Video Codec
    Профиль формата : High@L3.1
    Настройки формата : CABAC/1 Ref Frames
    Параметр CABAC формата : Да
    Параметр RefFrames формата : 1 кадр
    Параметр GOP формата : M=1, N=60
    Идентификатор кодека : avc1
    Идентификатор кодека/Информация : Advanced Video Coding
    Продолжительность : 2 ч. 14 м.
    Битрейт : 1266 Кбит/сек
    Максимальный битрейт : 6532 Кбит/сек
    Ширина : 1280 пикселей
    Высота : 534 пикселя
    Соотношение сторон : 2, 40: 1
    Режим частоты кадров : Постоянный
    Частота кадров : 23, 976 (24000/1001) кадра/сек
    Цветовое пространство : YUV
    Субдискретизация насыщенности : 4: 2: 0
    Битовая глубина : 8 бит
    Тип развёртки : Прогрессивная
    Бит/(Пиксели*Кадры) : 0.077
    Размер потока : 1, 19 Гбайт (87%)
    Дата пометки : UTC 2017-10-29 08: 02: 32
    Цветовой диапазон : Limited
    Основные цвета : BT.709
    Характеристики трансфера : BT.709
    Коэффициенты матрицы : BT.709
    Аудио
    Идентификатор : 2
    Формат : AAC
    Формат/Информация : Advanced Audio Codec
    Профиль формата : LC
    Идентификатор кодека : mp4a-40-2
    Продолжительность : 2 ч. 14 м.
    Вид битрейта : Переменный
    Битрейт : 192 Кбит/сек
    Максимальный битрейт : 202 Кбит/сек
    Каналы : 2 канала
    Расположение каналов : Front: L R
    Частота : 44, 1 КГц
    Частота кадров : 43, 066 кадра/сек (1024 SPF)
    Метод сжатия : С потерями
    Размер потока : 185 Мбайт (13%)
    Язык : Russian
    Дата кодирования : UTC 2017-10-29 07: 05: 26
    Дата пометки : UTC 2017-10-29 08: 02: 32
    Скриншоты:


    Все одноименные релизы в Клубе
    Время раздачи: с 10: 00 до 22: 00 (до появления первых 3-5 скачавших)


    Сноуден/Snowden (2016) HDRip [H.264] [MP4|1280x534]
    загрузка...
    Рейтинг →
     (голосов: 1, оценка 5/5, голосовать можно 1 раз )

    Другие торренты по теме:

  • Сноуден / Snowden (2016) CamRip
  • Сноуден / Snowden (2016) WEB-DLRip [Звук с CamRip]
  • Сноуден / Snowden (2016) WEB-DL [H.264 / 1080p-LQ] [Звук с CamRip]
  • Сноуден / Snowden (2016) WEB-DLRip [Звук с CamRip]
  • Сноуден / Snowden (2016) WEB-DL [H.264 / 1080p-LQ] [EN]
  • Сноуден / Snowden (2016) WEB-DL [H.264 / 1080p-LQ] [Line с CAMRip]
  • Сноуден / Snowden (2016) WEB-DLRip [Line с CAMRip]
  • Сноуден / Snowden (2016) WEB-DL [H.264 / 1080p-LQ] [Line]


    • Комментарии (0):

      Информация

      Информация

        Посетители, находящиеся в группе Гости, не могут оставлять комментарии в данной новости.

        ↓ Меню




        ↓ Опрос

        Вы добавили сайт в закладки?
        Да
        Нет


        Top 10 за месяц (КПК и мобильные)