.
Авторизация | Регистрация
Хочешь лучшие торренты? Добавь свой email!
Добавить

Торрент скачать бесплатно

» » Темная башня / The Dark Tower (2017) HDRip [H.264] [MP4|1920x800] торрент скачать бесплатно




    Темная башня / The Dark Tower (2017) HDRip [H.264] [MP4|1920x800] торрент скачать бесплатно

    Опубликовал: Админ | Дата: 29-10-2017, 05:00 | Просмотров: 0

    Производство: США, Imagine Entertainment, Media Rights Capital, Sony Pictures Entertainment (SPE), Weed Road Pictures
    Жанр: Ужасы, Фантастика, Фэнтези, Боевик
    Режиссер: Николай Арсель
    Продюсер: Акива Голдсман, Брайан Грейзер, Рон Ховард
    Актеры: Кэтрин Уинник, Мэттью МакКонахи, Идрис Эльба, Джеки Эрл Хейли, Эбби Ли, Су-хён, Деннис Хейсбёрт, Алекс МакГрегор, Николас Хэмилтон, Фрэн Кранц

    Описание

    Наш мир - не единственный из существующих. Заклятые враги Роланд Дискейн, последний из ордена стрелков, и Уолтер О’Дим, известный также как Человек в черном, ведут извечную борьбу. На кону - мифическая Темная Башня, последний оплот и надежда вселенной, без которой мир будет повержен в полный хаос и разрушение. Силам добра и зла суждено столкнуться в последней схватке, ведь Роланд Дискейн - единственный, кому под силу остановить Человека в черном, прежде чем тот разрушит Темную Башню.

    Возраст: 16+ (зрителям, достигшим 16 лет)
    Рейтинг MPAA: PG-13 (детям до 13 лет просмотр нежелателен)
    Дата мировой премьеры: 27 июля 2017
    Дата российской премьеры: 3 августа 2017, WDSSPR
    Продолжительность: 01: 34: 44
    Качество видео: HDRip
    Перевод: Дублированный (iTunes)
    Субтитры: Русские (форсированные, полные), Английские (полные, SDH)
    Видео: AVC/H.264, 1920x800, ~1878 Kbps
    Аудио: AC3, 6 ch, 384 kbps

    Общее
    Полное имя : E: DownloadТемная башня 2017 1080p.mp4
    Формат : MPEG-4
    Профиль формата : Base Media
    Идентификатор кодека : isom (isom/avc1/iso6)
    Размер файла : 1, 50 Гбайт
    Продолжительность : 1 ч. 34 м.
    Режим общего битрейта : Переменный
    Общий поток : 2264 Кбит/сек
    Дата кодирования : UTC 2017-10-28 08: 56: 52
    Дата пометки : UTC 2017-10-28 08: 56: 52
    Видео
    Идентификатор : 1
    Формат : AVC
    Формат/Информация : Advanced Video Codec
    Профиль формата : High@L4
    Настройки формата : CABAC/2 Ref Frames
    Параметр CABAC формата : Да
    Параметр RefFrames формата : 2 кадра
    Идентификатор кодека : avc1
    Идентификатор кодека/Информация : Advanced Video Coding
    Продолжительность : 1 ч. 34 м.
    Битрейт : 1878 Кбит/сек
    Максимальный битрейт : 8159 Кбит/сек
    Ширина : 1920 пикселей
    Высота : 800 пикселей
    Соотношение сторон : 2, 40: 1
    Режим частоты кадров : Постоянный
    Частота кадров : 23, 976 (24000/1001) кадра/сек
    Цветовое пространство : YUV
    Субдискретизация насыщенности : 4: 2: 0
    Битовая глубина : 8 бит
    Тип развёртки : Прогрессивная
    Бит/(Пиксели*Кадры) : 0.051
    Размер потока : 1, 24 Гбайт (83%)
    Дата кодирования : UTC 2017-10-28 08: 56: 52
    Дата пометки : UTC 2017-10-28 09: 02: 09
    Цветовой диапазон : Limited
    Основные цвета : BT.709
    Характеристики трансфера : BT.709
    Коэффициенты матрицы : BT.709
    Аудио
    Идентификатор : 2
    Формат : AC-3
    Формат/Информация : Audio Coding 3
    Параметр Endianness формата : Big
    Идентификатор кодека : ac-3
    Продолжительность : 1 ч. 34 м.
    Вид битрейта : Постоянный
    Битрейт : 384 Кбит/сек
    Максимальный битрейт : 406 Кбит/сек
    Каналы : 6 каналов
    Расположение каналов : Front: L C R, Side: L R, LFE
    Частота : 48, 0 КГц
    Частота кадров : 31, 250 кадров/сек (1536 SPF)
    Битовая глубина : 16 бит
    Метод сжатия : С потерями
    Размер потока : 260 Мбайт (17%)
    Заголовок : Дублированный (iTunes)
    Язык : Russian
    ServiceKind/String : Complete Main
    Дата кодирования : UTC 2017-10-28 09: 01: 37
    Дата пометки : UTC 2017-10-28 09: 02: 09
    Текст #1
    Идентификатор : 3
    Формат : Timed Text
    Идентификатор кодека : tx3g
    Продолжительность : 1 ч. 34 м.
    Вид битрейта : Переменный
    Битрейт : 1 бит/сек
    Размер потока : 609 байт (0%)
    Заголовок : Forced
    Язык : Russian
    Forced : Нет
    Дата кодирования : UTC 2017-10-28 09: 02: 09
    Дата пометки : UTC 2017-10-28 09: 02: 09
    Текст #2
    Идентификатор : 4
    Формат : Timed Text
    Идентификатор кодека : tx3g
    Продолжительность : 1 ч. 34 м.
    Вид битрейта : Переменный
    Битрейт : 63 бит/сек
    Размер потока : 43, 4 Кбайт (0%)
    Заголовок : Full
    Язык : Russian
    Forced : Нет
    Дата кодирования : UTC 2017-10-28 09: 02: 09
    Дата пометки : UTC 2017-10-28 09: 02: 09
    Текст #3
    Идентификатор : 5
    Формат : Timed Text
    Идентификатор кодека : tx3g
    Продолжительность : 1 ч. 27 м.
    Вид битрейта : Переменный
    Битрейт : 46 бит/сек
    Размер потока : 29, 3 Кбайт (0%)
    Заголовок : Full
    Язык : English
    Forced : Нет
    Дата кодирования : UTC 2017-10-28 09: 02: 09
    Дата пометки : UTC 2017-10-28 09: 02: 09
    Текст #4
    Идентификатор : 6
    Формат : Timed Text
    Идентификатор кодека : tx3g
    Продолжительность : 1 ч. 34 м.
    Вид битрейта : Переменный
    Битрейт : 48 бит/сек
    Размер потока : 33, 2 Кбайт (0%)
    Заголовок : SDH
    Язык : English
    Forced : Нет
    Дата кодирования : UTC 2017-10-28 09: 02: 09
    Дата пометки : UTC 2017-10-28 09: 02: 09
    Скриншоты:


    Все одноименные релизы в Клубе
    Время раздачи: с 10: 00 до 22: 00 (до появления первых 3-5 скачавших)


    Темная башня/The Dark Tower (2017) HDRip [H.264] [MP4|1920x800]
    загрузка...
    Рейтинг →
     (голосов: 1, оценка 5/5, голосовать можно 1 раз )

    Другие торренты по теме:

  • Темная башня / The Dark Tower (2017) [H.264 / 720p] [Трейлер]
  • Темная башня / The Dark Tower (2017) TS [H.264 / 720p-LQ] [AD]
  • Стивен Кинг | Темная башня 6: Песнь Сюзанны [2017] [M4B|AAC]
  • Темная башня / The Dark Tower (2017) BDRip [H.264 / 1080p]
  • Темная башня / The Dark Tower (2017) BDRip
  • Темная башня / The Dark Tower (2017) BDRip [H.264 / 1080p-LQ]
  • Темная башня / The Dark Tower (2017) BDRip [H.264]
  • Темная башня / The Dark Tower (2017) BDRemux [H.264 / 1080p]


    • Комментарии (0):

      Информация

      Информация

        Посетители, находящиеся в группе Гости, не могут оставлять комментарии в данной новости.

        ↓ Меню




        ↓ Опрос

        Вы добавили сайт в закладки?
        Да
        Нет


        Top 10 за месяц (КПК и мобильные)