.
Авторизация | Регистрация
Хочешь лучшие торренты? Добавь свой email!
Добавить

Торрент скачать бесплатно

» » Темная башня / The Dark Tower (2017) HDRip [H.264] [MP4|1280x534] торрент скачать бесплатно




    Темная башня / The Dark Tower (2017) HDRip [H.264] [MP4|1280x534] торрент скачать бесплатно

    Опубликовал: Админ | Дата: 29-10-2017, 05:00 | Просмотров: 0

    Производство: США, Imagine Entertainment, Media Rights Capital, Sony Pictures Entertainment (SPE), Weed Road Pictures
    Жанр: Ужасы, Фантастика, Фэнтези, Боевик
    Режиссер: Николай Арсель
    Продюсер: Акива Голдсман, Брайан Грейзер, Рон Ховард
    Актеры: Кэтрин Уинник, Мэттью МакКонахи, Идрис Эльба, Джеки Эрл Хейли, Эбби Ли, Су-хён, Деннис Хейсбёрт, Алекс МакГрегор, Николас Хэмилтон, Фрэн Кранц

    Описание

    Наш мир - не единственный из существующих. Заклятые враги Роланд Дискейн, последний из ордена стрелков, и Уолтер О’Дим, известный также как Человек в черном, ведут извечную борьбу. На кону - мифическая Темная Башня, последний оплот и надежда вселенной, без которой мир будет повержен в полный хаос и разрушение. Силам добра и зла суждено столкнуться в последней схватке, ведь Роланд Дискейн - единственный, кому под силу остановить Человека в черном, прежде чем тот разрушит Темную Башню.

    Возраст: 16+ (зрителям, достигшим 16 лет)
    Рейтинг MPAA: PG-13 (детям до 13 лет просмотр нежелателен)
    Дата мировой премьеры: 27 июля 2017
    Дата российской премьеры: 3 августа 2017, WDSSPR
    Продолжительность: 01: 34: 44
    Качество видео: HDRip
    Перевод: Дублированный (iTunes)
    Субтитры: Русские (форсированные, полные), Английские (полные, SDH)
    Видео: AVC/H.264, 1280x534, ~1263 Kbps
    Аудио: AAC, 2 ch, ~192 kbps

    Общее
    Полное имя : E: DownloadТемная башня 2017 720p.mp4
    Формат : MPEG-4
    Профиль формата : Base Media
    Идентификатор кодека : isom (isom)
    Размер файла : 988 Мбайт
    Продолжительность : 1 ч. 34 м.
    Режим общего битрейта : Переменный
    Общий поток : 1458 Кбит/сек
    Дата кодирования : UTC 2017-10-28 09: 08: 24
    Дата пометки : UTC 2017-10-28 09: 08: 24
    Видео
    Идентификатор : 1
    Формат : AVC
    Формат/Информация : Advanced Video Codec
    Профиль формата : High@L3.1
    Настройки формата : CABAC/1 Ref Frames
    Параметр CABAC формата : Да
    Параметр RefFrames формата : 1 кадр
    Параметр GOP формата : M=1, N=60
    Идентификатор кодека : avc1
    Идентификатор кодека/Информация : Advanced Video Coding
    Продолжительность : 1 ч. 34 м.
    Битрейт : 1263 Кбит/сек
    Максимальный битрейт : 6967 Кбит/сек
    Ширина : 1280 пикселей
    Высота : 534 пикселя
    Соотношение сторон : 2, 40: 1
    Режим частоты кадров : Постоянный
    Частота кадров : 23, 976 (24000/1001) кадра/сек
    Цветовое пространство : YUV
    Субдискретизация насыщенности : 4: 2: 0
    Битовая глубина : 8 бит
    Тип развёртки : Прогрессивная
    Бит/(Пиксели*Кадры) : 0.077
    Размер потока : 856 Мбайт (87%)
    Дата пометки : UTC 2017-10-28 09: 15: 27
    Цветовой диапазон : Limited
    Основные цвета : BT.709
    Характеристики трансфера : BT.709
    Коэффициенты матрицы : BT.709
    Аудио
    Идентификатор : 2
    Формат : AAC
    Формат/Информация : Advanced Audio Codec
    Профиль формата : LC
    Идентификатор кодека : mp4a-40-2
    Продолжительность : 1 ч. 34 м.
    Вид битрейта : Переменный
    Битрейт : 192 Кбит/сек
    Максимальный битрейт : 201 Кбит/сек
    Каналы : 2 канала
    Расположение каналов : Front: L R
    Частота : 44, 1 КГц
    Частота кадров : 43, 066 кадра/сек (1024 SPF)
    Метод сжатия : С потерями
    Размер потока : 130 Мбайт (13%)
    Язык : Russian
    Дата кодирования : UTC 2017-10-28 07: 21: 20
    Дата пометки : UTC 2017-10-28 09: 15: 27
    Текст #1
    Идентификатор : 3
    Формат : Timed Text
    Идентификатор кодека : tx3g
    Продолжительность : 1 ч. 34 м.
    Вид битрейта : Переменный
    Битрейт : 1 бит/сек
    Размер потока : 609 байт (0%)
    Заголовок : Forced
    Язык : Russian
    Forced : Нет
    Дата кодирования : UTC 2017-10-28 09: 15: 27
    Дата пометки : UTC 2017-10-28 09: 15: 27
    Текст #2
    Идентификатор : 4
    Формат : Timed Text
    Идентификатор кодека : tx3g
    Продолжительность : 1 ч. 34 м.
    Вид битрейта : Переменный
    Битрейт : 63 бит/сек
    Размер потока : 43, 4 Кбайт (0%)
    Заголовок : Full
    Язык : Russian
    Forced : Нет
    Дата кодирования : UTC 2017-10-28 09: 15: 27
    Дата пометки : UTC 2017-10-28 09: 15: 27
    Текст #3
    Идентификатор : 5
    Формат : Timed Text
    Идентификатор кодека : tx3g
    Продолжительность : 1 ч. 27 м.
    Вид битрейта : Переменный
    Битрейт : 46 бит/сек
    Размер потока : 29, 3 Кбайт (0%)
    Заголовок : Full
    Язык : English
    Forced : Нет
    Дата кодирования : UTC 2017-10-28 09: 15: 27
    Дата пометки : UTC 2017-10-28 09: 15: 27
    Текст #4
    Идентификатор : 6
    Формат : Timed Text
    Идентификатор кодека : tx3g
    Продолжительность : 1 ч. 34 м.
    Вид битрейта : Переменный
    Битрейт : 48 бит/сек
    Размер потока : 33, 2 Кбайт (0%)
    Заголовок : SDH
    Язык : English
    Forced : Нет
    Дата кодирования : UTC 2017-10-28 09: 15: 27
    Дата пометки : UTC 2017-10-28 09: 15: 27
    Скриншоты:


    Все одноименные релизы в Клубе
    Время раздачи: с 10: 00 до 22: 00 (до появления первых 3-5 скачавших)


    Темная башня/The Dark Tower (2017) HDRip [H.264] [MP4|1280x534]
    загрузка...
    Рейтинг →
     (голосов: 1, оценка 3/5, голосовать можно 1 раз )

    Другие торренты по теме:

  • Темная башня / The Dark Tower (2017) [H.264 / 720p] [Трейлер]
  • Темная башня / The Dark Tower (2017) TS [H.264 / 720p-LQ] [AD]
  • Стивен Кинг | Темная башня 6: Песнь Сюзанны [2017] [M4B|AAC]
  • Темная башня / The Dark Tower (2017) BDRip [H.264 / 1080p]
  • Темная башня / The Dark Tower (2017) BDRip
  • Темная башня / The Dark Tower (2017) BDRip [H.264 / 1080p-LQ]
  • Темная башня / The Dark Tower (2017) BDRip [H.264]
  • Темная башня / The Dark Tower (2017) BDRemux [H.264 / 1080p]


    • Комментарии (0):

      Информация

      Информация

        Посетители, находящиеся в группе Гости, не могут оставлять комментарии в данной новости.

        ↓ Меню




        ↓ Опрос

        Вы добавили сайт в закладки?
        Да
        Нет


        Top 10 за месяц (КПК и мобильные)