.
Авторизация | Регистрация
Хочешь лучшие торренты? Добавь свой email!
Добавить

Торрент скачать бесплатно

» » В.Г. Сурдин. Лекция «Эволюция Солнца и Солнечной системы» (2017) WEBRip [H.264] [MP4|1920x1080] торрент скачать бесплатно




    В.Г. Сурдин. Лекция «Эволюция Солнца и Солнечной системы» (2017) WEBRip [H.264] [MP4|1920x1080] торрент скачать бесплатно

    Опубликовал: Админ | Дата: 29-10-2017, 05:00 | Просмотров: 0

    Жанр: Лекция, Документальный
    Ведущий: В.Г. Сурдин

    Описание

    Как родились и изменялись Солнце и солнечная система? Останется ли Земля пригодной для жизни навсегда? Где мы найдем запасную планету?
    Данная научно-популярная лекция проводилась в рамках презентации книги Дэвида Берковичи Происхождение всего: от Большого взрыва до человеческой цивилизации
    Гость презентации — научный редактор перевода книги на русский язык, известный российский астроном Владимир Сурдин (доцент физического факультета МГУ)
    Продолжительность: 01: 50: 53
    Качество видео: WEBRip
    Субтитры: Отсутствуют
    Видео: AVC/H.264, 1920x1080, ~474 Kbps
    Аудио: AAC, 2 ch, 126 Kbps

    Общее
    Полное имя : C: В.Г. Сурдин. Лекция Эволюция Солнца и Солнечной системы.MP4
    Формат : MPEG-4
    Профиль формата : Base Media
    Идентификатор кодека : isom (isom/iso2/avc1/mp41)
    Размер файла : 478 Мбайт
    Продолжительность : 1 ч. 50 м.
    Режим общего битрейта : Переменный
    Общий поток : 603 Кбит/сек
    Дата кодирования : UTC 2017-10-26 05: 06: 35
    Дата пометки : UTC 2017-10-26 05: 06: 35
    Видео
    Идентификатор : 1
    Формат : AVC
    Формат/Информация : Advanced Video Codec
    Профиль формата : High@L4
    Настройки формата : CABAC/3 Ref Frames
    Параметр CABAC формата : Да
    Параметр RefFrames формата : 3 кадра
    Идентификатор кодека : avc1
    Идентификатор кодека/Информация : Advanced Video Coding
    Продолжительность : 1 ч. 50 м.
    Битрейт : 474 Кбит/сек
    Ширина : 1920 пикселей
    Высота : 1080 пикселей
    Соотношение сторон : 16: 9
    Режим частоты кадров : Постоянный
    Частота кадров : 25, 000 кадров/сек
    Цветовое пространство : YUV
    Субдискретизация насыщенности : 4: 2: 0
    Битовая глубина : 8 бит
    Тип развёртки : Прогрессивная
    Бит/(Пиксели*Кадры) : 0.009
    Размер потока : 376 Мбайт (79%)
    Дата кодирования : UTC 2017-10-26 05: 06: 35
    Дата пометки : UTC 2017-10-26 05: 06: 35
    Цветовой диапазон : Limited
    Основные цвета : BT.709
    Характеристики трансфера : BT.709
    Коэффициенты матрицы : BT.709
    Аудио
    Идентификатор : 2
    Формат : AAC
    Формат/Информация : Advanced Audio Codec
    Профиль формата : LC
    Идентификатор кодека : mp4a-40-2
    Продолжительность : 1 ч. 50 м.
    Вид битрейта : Переменный
    Битрейт : 126 Кбит/сек
    Каналы : 2 канала
    Расположение каналов : Front: L R
    Частота : 44, 1 КГц
    Частота кадров : 43, 066 кадра/сек (1024 SPF)
    Метод сжатия : С потерями
    Размер потока : 99, 6 Мбайт (21%)
    Default : Да
    AlternateGroup/String : 1
    Дата кодирования : UTC 2017-10-26 05: 14: 25
    Дата пометки : UTC 2017-10-26 05: 14: 25


    В.Г. Сурдин. Лекция «Эволюция Солнца и Солнечной системы» (2017) WEBRip [H.264] [MP4|1920x1080]
    загрузка...
    Рейтинг →
     (голосов: 1, оценка 4/5, голосовать можно 1 раз )

    Другие торренты по теме:

  • В. Г. Сурдин. Лекция "Удивительный Марс" (2013) WEBRip [H.264] [MP4|1920х1080]
  • В.Г. Сурдин. Лекция "Поиски новой жизни. Исследование близких и дальних планет" (2013) WEBRip [H.264] [MP4|1920х1080]
  • В.Г. Сурдин. Лекция "НЛО: готовимся к встрече" (2015) WEBRip [H.264] [MP4|640x360]
  • В.Г. Сурдин. Лекция "I Want to Believe или поиски внеземных цивилизаций" (2013) WEBRip [H.264] [MP4|1280x720]
  • В.Г. Сурдин. Лекция «Эволюция Солнца и Солнечной системы» (2015) WEBRip [H.264] [MP4|1280x720]
  • В.Г. Сурдин. Лекция «Мифы и заблуждения в науке о Вселенной» (2015) WEBRip [H.264] [MP4|1920х1080]
  • В.Г. Сурдин. Лекция «Верхом на комете» (2015) WEBRip [H.264] [MP4|1920х1080]
  • В.Г. Сурдин. Лекция «Заблуждения и мифы о Вселенной» (2016) WEBRip [H.264] [MP4|1920х1080]


    • Комментарии (0):

      Информация

      Информация

        Посетители, находящиеся в группе Гости, не могут оставлять комментарии в данной новости.

        ↓ Меню




        ↓ Опрос

        Вы добавили сайт в закладки?
        Да
        Нет


        Top 10 за месяц (КПК и мобильные)