.
Авторизация | Регистрация
Хочешь лучшие торренты? Добавь свой email!
Добавить

Торрент скачать бесплатно

» » Когда мы дома. Новая история / Коли ми вдома. Нова iсторiя (2017) WEB-DL [H.264] (Сезон 3, серии 1-29 из + бонусы) [MP4|1920x1080] [RU, UA] (Обновляемая) торрент скачать бесплатно



    Когда мы дома. Новая история / Коли ми вдома. Нова iсторiя (2017) WEB-DL [H.264] (Сезон 3, серии 1-29 из + бонусы) [MP4|1920x1080] [RU, UA] (Обновляемая) торрент скачать бесплатно

    Опубликовал: Админ | Дата: 28-10-2017, 05:00 | Просмотров: 0

    Производство: Украина
    Жанр: Комедия, Семейный
    Режиссер: Александр Островой, Антон Щербаков, Максим Литвинов
    Актеры: Станислав Боклан, Татьяна Шелига, Кирилл Бин, Екатерина Кистень, Алексей Тритенко, Екатерина Колесник, Константин Войтенко, Алена Алымова, Андрей Пономаренко, Ирина Андреева, Татьяна Зиновенко.

    Описание

    Вот и стартовал новый сезон любимого семейного сериала Украины Коли ми вдома. Нова історія! Теперь мы будем следить за жизнью и ежедневными проблемами простых украинцев, живущих в одной многоэтажке, с еще большим интересом. В троетьем сезоне нас ждут серии по 45 минут, вместо 25! И это еще не все изменения. Смотрите новые серии и вы увидите, как преобразился наш любимый сериал! Кроме главных персонажей, зрители увидят много дополнительных героев, среди которых: Алеся Власова, Алексей Смолка, Павел Зибров, Анастасия Блажчук, Нина Касторф, группа СКАЙ и другие.

    Продолжительность: ~00: 45: 00 серия
    Качество видео: WEB-DL
    Перевод: Отсутсвует
    Язык озвучки: Русский, Украинский (у одной семьи из пяти украинская речь)
    Субтитры: Отсутствуют
    Видео: AVC/H.264, 1920x1080, ~2700 kbps
    Аудио: AAC, 2 ch, 384 Kbps

    Общее
    Полное имя : D: ФильмыКогда мы дома. Новая историяКоли ми вдома - Когда мы дома s03 ep01 FullHD.mp4
    Формат : MPEG-4
    Профиль формата : Base Media
    Идентификатор кодека : isom (isom/iso2/avc1/mp41)
    Размер файла : 1, 06 Гбайт
    Продолжительность : 48 м. 2 с.
    Режим общего битрейта : Переменный
    Общий поток : 3162 Кбит/сек
    Коллекция : Коли ми вдома
    Сезон : 3
    Часть : 1
    Трек : Когда мы дома
    Исполнитель : Станислав Боклан/Татьяна Шелига/Кирилл Бин/Екатерина Кистень/Алексей Тритенко/Екатерина Колесник/Константин Войтенко/Алена Алымова/Андрей Пономаренко/Ирина Андреева/Татьяна Зиновенко. Кроме главных персонажей/зрители увидят много дополнительных героев/среди которых: Алеся Власова/Алексей Смолка/Павел Зибров/Анастасия Блажчук/Нина Касторф/группа СКАЙ и другие.
    Жанр : Комедия
    Тип содержимого : TV Show
    Описание : Сегодня, в сериале Коли ми вдома. Нова історія, годовщина свадьбы у Надежды и Григория. Григорий уже давно превратился в старого ворчуна, по мнению Надежды, о чем она мимолетно пожаловалась соседке Насте. Но Григорий случайно подслушал этот разговор и решил устроить романтический вечер на крыше, как много лет назад. За помощью он решил обратиться к самой романтичной паре их дома — Паше и Кате. Чем закончится желание старика устроить праздник на крыше, узнайте в сериале Коли ми вдома. Нова історія — серия 1 от 18.09.2017
    Программа кодирования : XviD4PSP 7.0.414 DAILY
    Обложка : Yes
    TVNetworkName : СТБ
    HDVideo : Yes
    country : Украина
    encoding_info : MP4 MP4 Apple 1080p/H264 COPY Пересинхронизация/AAC-LC COPY Пересинхронизация
    original_title : Коли ми вдома
    publisher : StarLight Films
    Видео
    Идентификатор : 1
    Формат : AVC
    Формат/Информация : Advanced Video Codec
    Профиль формата : High@L4
    Настройки формата : CABAC/2 Ref Frames
    Параметр CABAC формата : Да
    Параметр RefFrames формата : 2 кадра
    Параметр GOP формата : M=3, N=30
    Идентификатор кодека : avc1
    Идентификатор кодека/Информация : Advanced Video Coding
    Продолжительность : 48 м. 2 с.
    Вид битрейта : Переменный
    Битрейт : 2772 Кбит/сек
    Максимальный битрейт : 3000 Кбит/сек
    Ширина : 1920 пикселей
    Высота : 1080 пикселей
    Соотношение сторон : 16: 9
    Режим частоты кадров : Постоянный
    Частота кадров : 25, 000 кадров/сек
    Цветовое пространство : YUV
    Субдискретизация насыщенности : 4: 2: 0
    Битовая глубина : 8 бит
    Тип развёртки : Прогрессивная
    Бит/(Пиксели*Кадры) : 0.053
    Размер потока : 953 Мбайт (88%)
    Язык : English
    Аудио
    Идентификатор : 2
    Формат : AAC
    Формат/Информация : Advanced Audio Codec
    Профиль формата : LC
    Идентификатор кодека : mp4a-40-2
    Продолжительность : 48 м. 2 с.
    Вид битрейта : Постоянный
    Битрейт : 384 Кбит/сек
    Каналы : 2 канала
    Расположение каналов : Front: L R
    Частота : 48, 0 КГц
    Частота кадров : 46, 875 кадров/сек (1024 SPF)
    Метод сжатия : С потерями
    Размер потока : 132 Мбайт (12%)
    Язык : English
    Default : Да
    AlternateGroup/String : 1

    Прямая ссылка скачивания через uTorrent


    Когда мы дома. Новая история/Коли ми вдома. Нова iсторiя (2017) WEB-DL [H.264] (Сезон 3, серии 1-29 из + бонусы) [MP4|1920x1080] [RU, UA] (Обновляемая)
    загрузка...
    Рейтинг →
     (голосов: 1, оценка 4/5, голосовать можно 1 раз )

    Другие торренты по теме:

  • Когда мы дома / Коли ми вдома (2015) WEBRip [H.264] (сезон 2, серии 1-54 из 54) [MP4|640x360]
  • Когда мы дома / Коли ми вдома (2014) WEBRip [H.264] (сезон 1, серии 1-92 из 92 + доп.выпуски) [MP4|640x360]
  • Когда мы дома. Новая история / Коли ми вдома. Нова iсторiя (2017) WEB-DLRip [H.264] (Сезон 3, серии 1-29 из + бонусы) [MP4|1280x720] [RU, UA] (Обновляемая)


    • Комментарии (0):

      Информация

      Информация

        Посетители, находящиеся в группе Гости, не могут оставлять комментарии в данной новости.

        ↓ Меню




        ↓ Опрос

        Вы добавили сайт в закладки?
        Да
        Нет


        Top 10 за месяц (КПК и мобильные)