.
Авторизация | Регистрация
Хочешь лучшие торренты? Добавь свой email!
Добавить

Торрент скачать бесплатно

» » Слуга народа / Слуга народа (2017) WEB-DL [H.264] (сезон 2, серии 1-4 из 24) [MP4|1280x720] (обновляемая) торрент скачать бесплатно




    Слуга народа / Слуга народа (2017) WEB-DL [H.264] (сезон 2, серии 1-4 из 24) [MP4|1280x720] (обновляемая) торрент скачать бесплатно

    Опубликовал: Админ | Дата: 28-10-2017, 05:00 | Просмотров: 0

    Производство: Украина/Студия Квартал-95
    Жанр: Комедия
    Режиссер: Алексей Кирющенко
    Актеры: Владимир Зеленский, Станислав Боклан, Наталия Сумская, Виктор Сарайкин, Екатерина Кистень, Анна Кошмал, Ринат Хабибулин, Евгений Кошевой, Александр Пикалов, Юрий Крапов, Елена Кравец, Сергей Казанин

    Описание

    Что будет, если президентом станет обычный человек из народа? Новый, честный, принципиальный и, самое главное, – умный человек. Именно эти мысли однажды сподвигли народ избрать президентом простого учителя истории Василия Голобородько... Неожиданно для всех страна получила гаранта, который живет в обычной квартире. Который спокойно идет по улице без армии охранников и запросто ездит на маршрутке, который получает скромную зарплату и иногда занимает у друга до зарплаты. В общем, который живет – как все. Ведь он точно знает - когда царь начнет жить как простой учитель, вскоре простой учитель заживет как царь! И пускай у него нет серебряных пуль и осинового кола, каждое утро Василий Петрович выходит на борьбу с нечистой силой и без устали воюет с армадой коррумпированных и насквозь прогнивших чинуш, разгребает авгиевы конюшни государства. Правда, он не учел одного. Система, где все привыкли безбожно воровать, откатывать и дерибанить – будет против такой заботы о народе.

    Продолжительность: ~ 00: 25: 00 серия
    Качество видео: WEB-DL
    Язык озвучки: русский, украинский
    Видео: AVC/H.264, 1280x720, ~1360 Kbps
    Аудио: AAC, 2 ch, 126 Kbps

    General
    Complete name : D: СЕРИАЛЫСЛУГА НАРОДАSluga.naroda.s02.2017.WEB-DL(720).BigFANGroupSluga.naroda 2.s01-2.WEB-DL.720.BigFANGroup.mp4
    Format : MPEG-4
    Format profile : Base Media/Version 2
    Codec ID : mp42 (isom/mp42)
    File size : 559 MiB
    Duration : 52 min 29 s
    Overall bit rate mode : Variable
    Overall bit rate : 1 489 kb/s
    Encoded date : UTC 2017-10-23 21: 14: 57
    Tagged date : UTC 2017-10-23 21: 14: 57
    gsst : 0
    gstd : 3149299
    Video
    ID : 1
    Format : AVC
    Format/Info : Advanced Video Codec
    Format profile : Main@L3.1
    Format settings, CABAC : Yes
    Format settings, RefFrames : 3 frames
    Codec ID : avc1
    Codec ID/Info : Advanced Video Coding
    Duration : 52 min 29 s
    Bit rate : 1 360 kb/s
    Width : 1 280 pixels
    Height : 720 pixels
    Display aspect ratio : 16: 9
    Frame rate mode : Constant
    Frame rate : 25.000 FPS
    Color space : YUV
    Chroma subsampling : 4: 2: 0
    Bit depth : 8 bits
    Scan type : Progressive
    Bits/(Pixel*Frame) : 0.059
    Stream size : 510 MiB (91%)
    Title : ISO Media file produced by Google Inc. Created on: 10/23/2017.
    Encoded date : UTC 2017-10-23 21: 14: 57
    Tagged date : UTC 2017-10-23 21: 14: 57
    Color range : Limited
    Color primaries : BT.709
    Transfer characteristics : BT.709
    Matrix coefficients : BT.709
    Audio
    ID : 2
    Format : AAC
    Format/Info : Advanced Audio Codec
    Format profile : LC
    Codec ID : 40
    Duration : 52 min 29 s
    Bit rate mode : Variable
    Bit rate : 126 kb/s
    Channel(s) : 2 channels
    Channel positions : Front: L R
    Sampling rate : 44.1 kHz
    Frame rate : 43.066 FPS (1024 SPF)
    Compression mode : Lossy
    Stream size : 47.1 MiB (8%)
    Title : ISO Media file produced by Google Inc. Created on: 10/23/2017.
    Encoded date : UTC 2017-10-23 21: 14: 57
    Tagged date : UTC 2017-10-23 21: 14: 57


    Слуга народа/Слуга народа (2017) WEB-DL [H.264] (сезон 2, серии 1-4 из 24) [MP4|1280x720] (обновляемая)
    загрузка...
    Рейтинг →
     (голосов: 1, оценка 5/5, голосовать можно 1 раз )

    Другие торренты по теме:

  • Слуга народа (2015) SATRip (Серия 1) скачать через торрент бесплатно
  • Слуга народа (2015) SATRip (04 из 24 серий) [ОБНОВЛЯЕМАЯ] скачать через торрент бесплатно
  • Слуга народа (2015) WEB-DLRip (серии 1-4 из 24) [ОБНОВЛЯЕМАЯ] скачать через торрент бесплатно
  • Слуга народа (2015) WEB-DLRip [H.264 / 720p-LQ] (серии 1-4 из 24) [ОБНОВЛЯЕМАЯ] скачать через торрент бесплатно
  • Слуга народа (2015) WEB-DLRip [H.264 / 1080p-LQ] (серии 1-4 из 24) [ОБНОВЛЯЕМАЯ] скачать через торрент бесплатно
  • Слуга народа 2 (2016) WEB-DL [H.264 / 1080p-LQ]
  • Слуга народа 2 (2016) WEB-DLRip
  • Слуга народа (2017) WEBRip (сезон 2, серии 1 из 24) (обновляемая)


    • Комментарии (0):

      Информация

      Информация

        Посетители, находящиеся в группе Гости, не могут оставлять комментарии в данной новости.

        ↓ Меню




        ↓ Опрос

        Вы добавили сайт в закладки?
        Да
        Нет


        Top 10 за месяц (КПК и мобильные)