.
Авторизация | Регистрация
Хочешь лучшие торренты? Добавь свой email!
Добавить

Торрент скачать бесплатно

» » Первый мститель Противостояние / Captain America: Civil War (2016) HDRip [H.264] [MP4|1280x536] торрент скачать бесплатно




    Первый мститель Противостояние / Captain America: Civil War (2016) HDRip [H.264] [MP4|1280x536] торрент скачать бесплатно

    Опубликовал: Админ | Дата: 28-10-2017, 05:00 | Просмотров: 0

    Производство: США, Германия/Deluxe Digital Studios, Marvel Entertainment, Marvel Studios Inc.
    Жанр: Фантастика, Боевик, Приключения
    Режиссер: Энтони Руссо, Джо Руссо
    Продюсер: Кевин Файги, Виктория Алонсо, Митчелл Белл
    Актеры: Крис Эванс, Роберт Дауни мл., Скарлетт Йоханссон, Себастьян Стэн, Энтони Маки, Дон Чидл, Джереми Реннер, Чэдвик Боузмэн, Пол Беттани, Элизабет Олсен

    Описание

    Мстители под руководством Капитана Америки оказываются участниками разрушительного инцидента, имеющего международный масштаб. Эти события заставляют правительство задуматься над тем, чтобы начать регулировать действия всех людей с особыми способностями, введя Акт о регистрации супергероев, вынуждая их подчиняться ООН.
    Видя в этом договоре нарушение гражданских прав и плевок на всё, во что он верит, Стив Роджерс открыто восстаёт против нового режима, ведя за собой группу героев, поддерживающих его мнение. В свою очередь, Тони Старк видит смысл в новом договоре и становится во главе героев, поддерживающих его. Всё это приводит к неизбежному расколу Мстителей и войне между сторонами. Сражаясь друг с другом, Старк и Роджерс не знают о том, что таинственный Барон Земо уже строит свои собственные планы, воспользовавшись расколом величайших героев Земли.

    Возраст: 16+ (зрителям, достигшим 16 лет)
    Рейтинг MPAA: PG-13 (детям до 13 лет просмотр нежелателен)
    Дата мировой премьеры: 12 апреля 2016
    Дата российской премьеры: 5 мая 2016, WDSSPR 3D
    Дата выхода DVD/Blu-ray релиза: 20 сентября 2016, Уолт Дисней Компани СНГ
    Продолжительность: 02: 27: 41
    Качество видео: HDRip
    Перевод: Дублированный (iTunes)
    Субтитры: отсутствуют
    Видео: AVC/H.264, 1280x536, ~1137 Kbps
    Аудио: AAC, 2 ch, ~192 kbps

    Общее
    Полное имя : E: DownloadCaptain America Civil War 2016 720p.mp4
    Формат : MPEG-4
    Профиль формата : Base Media
    Идентификатор кодека : isom (isom)
    Размер файла : 1, 37 Гбайт
    Продолжительность : 2 ч. 27 м.
    Режим общего битрейта : Переменный
    Общий поток : 1331 Кбит/сек
    Дата кодирования : UTC 2017-10-27 09: 08: 16
    Дата пометки : UTC 2017-10-27 09: 08: 16
    Видео
    Идентификатор : 1
    Формат : AVC
    Формат/Информация : Advanced Video Codec
    Профиль формата : High@L3.1
    Настройки формата : CABAC/1 Ref Frames
    Параметр CABAC формата : Да
    Параметр RefFrames формата : 1 кадр
    Идентификатор кодека : avc1
    Идентификатор кодека/Информация : Advanced Video Coding
    Продолжительность : 2 ч. 27 м.
    Битрейт : 1137 Кбит/сек
    Максимальный битрейт : 8212 Кбит/сек
    Ширина : 1280 пикселей
    Высота : 536 пикселей
    Соотношение сторон : 2, 40: 1
    Режим частоты кадров : Постоянный
    Частота кадров : 23, 976 (24000/1001) кадра/сек
    Цветовое пространство : YUV
    Субдискретизация насыщенности : 4: 2: 0
    Битовая глубина : 8 бит
    Тип развёртки : Прогрессивная
    Бит/(Пиксели*Кадры) : 0.069
    Размер потока : 1, 17 Гбайт (85%)
    Дата пометки : UTC 2017-10-27 09: 12: 42
    Цветовой диапазон : Limited
    Основные цвета : BT.709
    Характеристики трансфера : BT.709
    Коэффициенты матрицы : BT.709
    Аудио
    Идентификатор : 2
    Формат : AAC
    Формат/Информация : Advanced Audio Codec
    Профиль формата : LC
    Идентификатор кодека : mp4a-40-2
    Продолжительность : 2 ч. 27 м.
    Вид битрейта : Переменный
    Битрейт : 192 Кбит/сек
    Максимальный битрейт : 201 Кбит/сек
    Каналы : 2 канала
    Расположение каналов : Front: L R
    Частота : 44, 1 КГц
    Частота кадров : 43, 066 кадра/сек (1024 SPF)
    Метод сжатия : С потерями
    Размер потока : 203 Мбайт (14%)
    Язык : Russian
    Дата кодирования : UTC 2017-10-27 07: 11: 05
    Дата пометки : UTC 2017-10-27 09: 12: 42
    Скриншоты:


    Все одноименные релизы в Клубе
    Время раздачи: с 11: 00 до 23: 00 (до появления первых 3-5 скачавших)


    Первый мститель Противостояние/Captain America: Civil War (2016) HDRip [H.264] [MP4|1280x536]
    загрузка...
    Рейтинг →
     (голосов: 1, оценка 4/5, голосовать можно 1 раз )

    Другие торренты по теме:

  • Первый мститель / Captain America: The First Avenger (2011) BDRip [AVO] скачать через торрент бесплатно
  • Первый мститель: Другая война / Captain America: The Winter Soldier (2014) HDRip [AVO] скачать через торрент бесплатно
  • Первый мститель: Дилогия / Captain America: Dilogy (2011, 2014) BDRip [H.264 / 720p] [hand made 60fps] скачать через торрент бесплатно
  • Первый мститель: Противостояние / Captain America: Civil War (2016) WEBRip [H.264 / 1080p] [Трейлер] скачать через торрент бесплатно
  • Первый мститель: Противостояние / Captain America: Civil War (2016) DCPRip [2К] [Hi10P, Hi444PP] [Трейлер A] скачать через торрент бесплатно
  • Первый мститель: Противостояние / Captain America: Civil War (2016) [H.264 / 1080p] [Трейлер#2]
  • Henry Jackman - Первый мститель Противостояние / Captain America: Civil War (Original Motion Picture Soundtrack) (2016) [MP3|320 кб / с]<Soundtrack>
  • Henry Jackman - Первый Мститель Противостояние / Captain America: Civil War (Original Motion Picture Soundtrack) (2016) [FLAC|Lossless|WEB-DL|tracks]<Soundtrack>


    • Комментарии (0):

      Информация

      Информация

        Посетители, находящиеся в группе Гости, не могут оставлять комментарии в данной новости.

        ↓ Меню




        ↓ Опрос

        Вы добавили сайт в закладки?
        Да
        Нет


        Top 10 за месяц (КПК и мобильные)