.
Авторизация | Регистрация
Хочешь лучшие торренты? Добавь свой email!
Добавить

Торрент скачать бесплатно

» » Сплит / Split (2016) HDRip [H.264] [MP4|1920x804] торрент скачать бесплатно




    Сплит / Split (2016) HDRip [H.264] [MP4|1920x804] торрент скачать бесплатно

    Опубликовал: Админ | Дата: 27-10-2017, 05:00 | Просмотров: 0

    Производство: США/Blinding Edge Pictures
    Жанр: Ужасы, Триллер
    Режиссер: М. Найт Шьямалан
    Продюсер: Марк Бьенсток, Джейсон Блум, Дом Катанцарите
    Актеры: Джеймс МакЭвой, Аня Тейлор-Джой, Бетти Бакли, Хейли Лу Ричардсон, Джессика Сула

    Описание

    Cредь бела дня с многолюдной парковки незнакомец похищает трёх школьниц. Они приходят в себя в закрытом помещении, а в душе владельца таятся 23 лика страха. Сменяя друг друга, личности ведут обычную для них жизнь — работают и ходят к психотерапевту, периодически напоминая пленницам, что они дожидаются 24-ю личность, которая скоро явит себя миру.

    Возраст: 16+ (зрителям, достигшим 16 лет)
    Рейтинг MPAA: PG-13 (детям до 13 лет просмотр нежелателен)
    Дата мировой премьеры: 26 сентября 2016
    Дата российской премьеры: 16 марта 2017, UPI
    Продолжительность: 01: 57: 07
    Качество видео: HDRip
    Перевод: Дублированный (Лицензия BD CEE)
    Субтитры: Русские (форсированные, полные), Английские (полные, SDH)
    Видео: AVC/H.264, 1920x804, ~1152 Kbps
    Аудио: AC3, 6 ch, 384 kbps

    Общее
    Полное имя : E: DownloadSplit 2016 1080p.mp4
    Формат : MPEG-4
    Профиль формата : Base Media
    Идентификатор кодека : isom (isom/avc1/iso6)
    Размер файла : 1, 26 Гбайт
    Продолжительность : 1 ч. 57 м.
    Режим общего битрейта : Переменный
    Общий поток : 1539 Кбит/сек
    Дата кодирования : UTC 2017-10-26 13: 15: 02
    Дата пометки : UTC 2017-10-26 13: 15: 02
    Видео
    Идентификатор : 1
    Формат : AVC
    Формат/Информация : Advanced Video Codec
    Профиль формата : High@L4
    Настройки формата : CABAC/2 Ref Frames
    Параметр CABAC формата : Да
    Параметр RefFrames формата : 2 кадра
    Идентификатор кодека : avc1
    Идентификатор кодека/Информация : Advanced Video Coding
    Продолжительность : 1 ч. 57 м.
    Битрейт : 1152 Кбит/сек
    Максимальный битрейт : 6116 Кбит/сек
    Ширина : 1920 пикселей
    Высота : 804 пикселя
    Соотношение сторон : 2, 40: 1
    Режим частоты кадров : Постоянный
    Частота кадров : 23, 976 (24000/1001) кадра/сек
    Цветовое пространство : YUV
    Субдискретизация насыщенности : 4: 2: 0
    Битовая глубина : 8 бит
    Тип развёртки : Прогрессивная
    Бит/(Пиксели*Кадры) : 0.031
    Размер потока : 965 Мбайт (75%)
    Дата кодирования : UTC 2017-10-26 13: 15: 02
    Дата пометки : UTC 2017-10-26 13: 16: 28
    Цветовой диапазон : Limited
    Основные цвета : BT.709
    Характеристики трансфера : BT.709
    Коэффициенты матрицы : BT.709
    Аудио
    Идентификатор : 2
    Формат : AC-3
    Формат/Информация : Audio Coding 3
    Параметр Endianness формата : Big
    Идентификатор кодека : ac-3
    Продолжительность : 1 ч. 57 м.
    Вид битрейта : Постоянный
    Битрейт : 384 Кбит/сек
    Максимальный битрейт : 406 Кбит/сек
    Каналы : 6 каналов
    Расположение каналов : Front: L C R, Side: L R, LFE
    Частота : 48, 0 КГц
    Частота кадров : 31, 250 кадров/сек (1536 SPF)
    Битовая глубина : 16 бит
    Метод сжатия : С потерями
    Размер потока : 322 Мбайт (25%)
    Язык : Russian
    ServiceKind/String : Complete Main
    Дата кодирования : UTC 2017-10-26 13: 16: 03
    Дата пометки : UTC 2017-10-26 13: 16: 28
    Текст #1
    Идентификатор : 3
    Формат : Timed Text
    Идентификатор кодека : tx3g
    Продолжительность : 1 ч. 52 м.
    Вид битрейта : Переменный
    Битрейт : 1 бит/сек
    Размер потока : 512 байт (0%)
    Заголовок : Forced
    Язык : Russian
    Forced : Нет
    Дата кодирования : UTC 2017-10-26 13: 16: 28
    Дата пометки : UTC 2017-10-26 13: 16: 28
    Текст #2
    Идентификатор : 4
    Формат : Timed Text
    Идентификатор кодека : tx3g
    Продолжительность : 1 ч. 52 м.
    Вид битрейта : Переменный
    Битрейт : 82 бит/сек
    Размер потока : 68, 1 Кбайт (0%)
    Заголовок : Full
    Язык : Russian
    Forced : Нет
    Дата кодирования : UTC 2017-10-26 13: 16: 28
    Дата пометки : UTC 2017-10-26 13: 16: 28
    Текст #3
    Идентификатор : 5
    Формат : Timed Text
    Идентификатор кодека : tx3g
    Продолжительность : 1 ч. 53 м.
    Вид битрейта : Переменный
    Битрейт : 49 бит/сек
    Размер потока : 40, 5 Кбайт (0%)
    Заголовок : Full
    Язык : English
    Forced : Нет
    Дата кодирования : UTC 2017-10-26 13: 16: 28
    Дата пометки : UTC 2017-10-26 13: 16: 28
    Текст #4
    Идентификатор : 6
    Формат : Timed Text
    Идентификатор кодека : tx3g
    Продолжительность : 1 ч. 52 м.
    Вид битрейта : Переменный
    Битрейт : 54 бит/сек
    Размер потока : 44, 5 Кбайт (0%)
    Заголовок : SDH
    Язык : English
    Forced : Нет
    Дата кодирования : UTC 2017-10-26 13: 16: 28
    Дата пометки : UTC 2017-10-26 13: 16: 28
    Скриншоты:


    Все одноименные релизы в Клубе
    Время раздачи: с 11: 00 до 23: 00 (до появления первых 3-5 скачавших)


    Сплит/Split (2016) HDRip [H.264] [MP4|1920x804]
    загрузка...
    Рейтинг →
     (голосов: 1, оценка 4/5, голосовать можно 1 раз )

    Другие торренты по теме:

  • Сплит / Split (2016) TS
  • Сплит / Split (2016) WEB-DLRip
  • Сплит / Split (2016) TS
  • Сплит / Split (2016) WEBRip [Звук с TS]
  • Сплит / Split (2016) WEBRip [H.264 / 720p-LQ] [Звук с TS]
  • Сплит / Split (2016) WEBRip [H.264 / 1080p-LQ] [Звук с TS]
  • Сплит / Split (2016) WEBRip [H.264 / 1080p-LQ] [EN / KOR Sub]
  • Сплит / Split (2016) WEBRip [H.264 / 1080p-LQ]


    • Комментарии (0):

      Информация

      Информация

        Посетители, находящиеся в группе Гости, не могут оставлять комментарии в данной новости.

        ↓ Меню




        ↓ Опрос

        Вы добавили сайт в закладки?
        Да
        Нет


        Top 10 за месяц (КПК и мобильные)