.
Авторизация | Регистрация
Хочешь лучшие торренты? Добавь свой email!
Добавить

Торрент скачать бесплатно

» » Варкрафт / Warcraft (2016) HDRip [H.264] [MP4|1920x790] торрент скачать бесплатно




    Варкрафт / Warcraft (2016) HDRip [H.264] [MP4|1920x790] торрент скачать бесплатно

    Опубликовал: Админ | Дата: 26-10-2017, 05:00 | Просмотров: 0

    Производство: США, Китай, Канада, Япония/Atlas Entertainment, Universal Pictures, Legendary Pictures
    Жанр: Фэнтези, Боевик, Приключения
    Режиссер: Дункан Джонс
    Продюсер: Стюарт Фенеган, Алекс Гартнер, Джон Дж. Джашни
    Актеры: Трэвис Фиммел, Пола Пэттон, Бен Фостер, Доминик Купер, Тоби Кеббелл, Бен Шнетцер, Роберт Казински, Клэнси Браун, Дэниэл Ву, Рут Негга

    Описание

    Веками магия и неприступные стены защищали людей от любых напастей. Но древнее зло, побежденное и забытое тысячелетия назад, пробудилось.
    В самом сердце королевства открылся темный портал, и раса невиданных существ наводнила земли Азерота. Так начались события, призванные навсегда изменить судьбу этого мира.

    Возраст: 12+ (зрителям, достигшим 12 лет)
    Рейтинг MPAA: PG-13 (детям до 13 лет просмотр нежелателен)
    Дата мировой премьеры: 24 мая 2016
    Дата российской премьеры: 26 мая 2016, UPI 3D
    Продолжительность: 02: 03: 07
    Качество видео: HDRip
    Перевод: Дублированный (Лицензия BD CEE)
    Субтитры: Русские (форсированные, полные), Английские (полные, SDH)
    Видео: AVC/H.264, 1920x790, ~2309 Kbps
    Аудио: AC3, 6 ch, 384 kbps

    Общее
    Полное имя : E: DownloadWarcraft 2016 1080p.mp4
    Формат : MPEG-4
    Профиль формата : Base Media
    Идентификатор кодека : isom (isom/avc1/iso6)
    Размер файла : 2, 32 Гбайт
    Продолжительность : 2 ч. 3 м.
    Режим общего битрейта : Переменный
    Общий поток : 2695 Кбит/сек
    Дата кодирования : UTC 2017-10-25 11: 58: 40
    Дата пометки : UTC 2017-10-25 11: 58: 40
    Видео
    Идентификатор : 1
    Формат : AVC
    Формат/Информация : Advanced Video Codec
    Профиль формата : High@L4
    Настройки формата : CABAC/2 Ref Frames
    Параметр CABAC формата : Да
    Параметр RefFrames формата : 2 кадра
    Идентификатор кодека : avc1
    Идентификатор кодека/Информация : Advanced Video Coding
    Продолжительность : 2 ч. 3 м.
    Битрейт : 2309 Кбит/сек
    Максимальный битрейт : 8953 Кбит/сек
    Ширина : 1920 пикселей
    Высота : 790 пикселей
    Соотношение сторон : 2, 40: 1
    Режим частоты кадров : Постоянный
    Частота кадров : 23, 976 (24000/1001) кадра/сек
    Цветовое пространство : YUV
    Субдискретизация насыщенности : 4: 2: 0
    Битовая глубина : 8 бит
    Тип развёртки : Прогрессивная
    Бит/(Пиксели*Кадры) : 0.063
    Размер потока : 1, 99 Гбайт (86%)
    Дата кодирования : UTC 2017-10-25 11: 58: 40
    Дата пометки : UTC 2017-10-25 12: 01: 50
    Цветовой диапазон : Limited
    Основные цвета : BT.709
    Характеристики трансфера : BT.709
    Коэффициенты матрицы : BT.709
    Аудио
    Идентификатор : 2
    Формат : AC-3
    Формат/Информация : Audio Coding 3
    Параметр Endianness формата : Big
    Идентификатор кодека : ac-3
    Продолжительность : 2 ч. 3 м.
    Вид битрейта : Постоянный
    Битрейт : 384 Кбит/сек
    Максимальный битрейт : 406 Кбит/сек
    Каналы : 6 каналов
    Расположение каналов : Front: L C R, Side: L R, LFE
    Частота : 48, 0 КГц
    Частота кадров : 31, 250 кадров/сек (1536 SPF)
    Битовая глубина : 16 бит
    Метод сжатия : С потерями
    Размер потока : 338 Мбайт (14%)
    Язык : Russian
    ServiceKind/String : Complete Main
    Дата кодирования : UTC 2017-10-25 12: 01: 21
    Дата пометки : UTC 2017-10-25 12: 01: 50
    Текст #1
    Идентификатор : 3
    Формат : Timed Text
    Идентификатор кодека : tx3g
    Продолжительность : 1 ч. 53 м.
    Вид битрейта : Переменный
    Битрейт : 0 бит/сек
    Размер потока : 342 байт (0%)
    Заголовок : Forced
    Язык : Russian
    Forced : Нет
    Дата кодирования : UTC 2017-10-25 12: 01: 50
    Дата пометки : UTC 2017-10-25 12: 01: 50
    Текст #2
    Идентификатор : 4
    Формат : Timed Text
    Идентификатор кодека : tx3g
    Продолжительность : 1 ч. 53 м.
    Вид битрейта : Переменный
    Битрейт : 65 бит/сек
    Размер потока : 54, 5 Кбайт (0%)
    Заголовок : Full
    Язык : Russian
    Forced : Нет
    Дата кодирования : UTC 2017-10-25 12: 01: 50
    Дата пометки : UTC 2017-10-25 12: 01: 50
    Текст #3
    Идентификатор : 5
    Формат : Timed Text
    Идентификатор кодека : tx3g
    Продолжительность : 1 ч. 53 м.
    Вид битрейта : Переменный
    Битрейт : 42 бит/сек
    Размер потока : 34, 7 Кбайт (0%)
    Заголовок : Full
    Язык : English
    Forced : Нет
    Дата кодирования : UTC 2017-10-25 12: 01: 50
    Дата пометки : UTC 2017-10-25 12: 01: 50
    Текст #4
    Идентификатор : 6
    Формат : Timed Text
    Идентификатор кодека : tx3g
    Продолжительность : 1 ч. 53 м.
    Вид битрейта : Переменный
    Битрейт : 48 бит/сек
    Размер потока : 40, 1 Кбайт (0%)
    Заголовок : SDH
    Язык : English
    Forced : Нет
    Дата кодирования : UTC 2017-10-25 12: 01: 50
    Дата пометки : UTC 2017-10-25 12: 01: 50
    Скриншоты:


    Все одноименные релизы в Клубе
    Время раздачи: с 11: 00 до 23: 00 (до появления первых 3-5 скачавших)


    Варкрафт/Warcraft (2016) HDRip [H.264] [MP4|1920x790]
    загрузка...
    Рейтинг →
     (голосов: 1, оценка 5/5, голосовать можно 1 раз )

    Другие торренты по теме:

  • Варкрафт / Warcraft (2016) WEBRip [H.264 / 1080p] [Трейлер] скачать через торрент бесплатно
  • Варкрафт / Warcraft (2016) DCPRip [2K] [Hi10P, Hi444PP] [Трейлер] скачать через торрент бесплатно
  • Варкрафт / Warcraft (2016) WEBRip [H.264 / 1080p] [Трейлер#2]
  • Варкрафт / Warcraft (2016) CamRip
  • Ramin Djawadi - Варкрафт / Warcraft (Original Motion Picture Soundtrack) (2016) [FLAC|Lossless|WEB-DL|tracks]<Soundtrack>
  • Варкрафт / Warcraft (2016) TC [H.264 / 720p-LQ] [звук с CAMRip]
  • Варкрафт / Warcraft (2016) TC [H.264] [звук с CAMRip]
  • Варкрафт / Warcraft (2016) TC [Line]


    • Комментарии (0):

      Информация

      Информация

        Посетители, находящиеся в группе Гости, не могут оставлять комментарии в данной новости.

        ↓ Меню




        ↓ Опрос

        Вы добавили сайт в закладки?
        Да
        Нет


        Top 10 за месяц (КПК и мобильные)