.
Авторизация | Регистрация
Хочешь лучшие торренты? Добавь свой email!
Добавить

Торрент скачать бесплатно

» » Антропоид / Anthropoid (2016) HDRip [H.264] [MP4|1280x536] торрент скачать бесплатно




    Антропоид / Anthropoid (2016) HDRip [H.264] [MP4|1280x536] торрент скачать бесплатно

    Опубликовал: Админ | Дата: 25-10-2017, 05:00 | Просмотров: 0

    Производство: Чехия, Великобритания, Франция/22h22, Lucky Man Films, Liddell Entertainment
    Жанр: Триллер, Военный, Биография, История
    Режиссер: Шон Эллис
    Продюсер: Шон Эллис, Мики Лиделл, Пит Шилеймон
    Актеры: Джейми Дорнан, Киллиан Мёрфи, Брайан Каспе, Карел Гержманек, Хана Фрейкова, Шон Махон, Жан Хайек

    Описание

    Основанный на реальной истории операции Антропоид, целью которой было устранение генерала СС Рейнхарда Гейдриха. Гейдрих занимал третье место после Гитлера и Гиммлера в фашистской иерархии. Его устранение, посредством этой сверхсекретной операции, нанесло бы невосполнимую потерю силам нацистов и внесло огромный вклад в общую победу.

    Возраст: 16+ (зрителям, достигшим 16 лет)
    Рейтинг MPAA: R (лицам до 17 лет обязательно присутствие взрослого)
    Дата мировой премьеры: 1 июля 2016, Чехия, Международный кинофестиваль в Карловых Варах
    Дата российской премьеры: 22 июня 2017, АКМ
    Продолжительность: 02: 00: 52
    Качество видео: HDRip
    Перевод: Дублированный (iTunes)
    Субтитры: Русские (форсированные, полные), Английские (полные, SDH)
    Видео: AVC/H.264, 1280x536, ~1241 Kbps
    Аудио: AAC, 2 ch, ~192 kbps

    Общее
    Полное имя : E: DownloadAnthropoid 2016 720p.mp4
    Формат : MPEG-4
    Профиль формата : Base Media
    Идентификатор кодека : isom (isom)
    Размер файла : 1, 21 Гбайт
    Продолжительность : 2 ч. 0 м.
    Режим общего битрейта : Переменный
    Общий поток : 1436 Кбит/сек
    Дата кодирования : UTC 2017-10-24 08: 33: 45
    Дата пометки : UTC 2017-10-24 08: 33: 45
    Видео
    Идентификатор : 1
    Формат : AVC
    Формат/Информация : Advanced Video Codec
    Профиль формата : High@L3.1
    Настройки формата : CABAC/1 Ref Frames
    Параметр CABAC формата : Да
    Параметр RefFrames формата : 1 кадр
    Параметр GOP формата : M=1, N=60
    Идентификатор кодека : avc1
    Идентификатор кодека/Информация : Advanced Video Coding
    Продолжительность : 2 ч. 0 м.
    Битрейт : 1241 Кбит/сек
    Максимальный битрейт : 5192 Кбит/сек
    Ширина : 1280 пикселей
    Высота : 536 пикселей
    Соотношение сторон : 2, 40: 1
    Режим частоты кадров : Постоянный
    Частота кадров : 23, 976 (24000/1001) кадра/сек
    Цветовое пространство : YUV
    Субдискретизация насыщенности : 4: 2: 0
    Битовая глубина : 8 бит
    Тип развёртки : Прогрессивная
    Бит/(Пиксели*Кадры) : 0.075
    Размер потока : 1, 05 Гбайт (86%)
    Дата пометки : UTC 2017-10-24 08: 36: 47
    Цветовой диапазон : Limited
    Основные цвета : BT.709
    Характеристики трансфера : BT.709
    Коэффициенты матрицы : BT.709
    Аудио
    Идентификатор : 2
    Формат : AAC
    Формат/Информация : Advanced Audio Codec
    Профиль формата : LC
    Идентификатор кодека : mp4a-40-2
    Продолжительность : 2 ч. 0 м.
    Вид битрейта : Переменный
    Битрейт : 192 Кбит/сек
    Максимальный битрейт : 201 Кбит/сек
    Каналы : 2 канала
    Расположение каналов : Front: L R
    Частота : 44, 1 КГц
    Частота кадров : 43, 066 кадра/сек (1024 SPF)
    Метод сжатия : С потерями
    Размер потока : 166 Мбайт (13%)
    Язык : Russian
    Дата кодирования : UTC 2017-10-23 12: 14: 36
    Дата пометки : UTC 2017-10-24 08: 36: 47
    Текст #1
    Идентификатор : 3
    Формат : Timed Text
    Идентификатор кодека : tx3g
    Продолжительность : 1 ч. 56 м.
    Вид битрейта : Переменный
    Битрейт : 2 бит/сек
    Размер потока : 1, 53 Кбайт (0%)
    Заголовок : Forced
    Язык : Russian
    Forced : Нет
    Дата кодирования : UTC 2017-10-24 08: 36: 47
    Дата пометки : UTC 2017-10-24 08: 36: 47
    Текст #2
    Идентификатор : 4
    Формат : Timed Text
    Идентификатор кодека : tx3g
    Продолжительность : 1 ч. 56 м.
    Вид битрейта : Переменный
    Битрейт : 64 бит/сек
    Размер потока : 55, 0 Кбайт (0%)
    Заголовок : Full
    Язык : Russian
    Forced : Нет
    Дата кодирования : UTC 2017-10-24 08: 36: 47
    Дата пометки : UTC 2017-10-24 08: 36: 47
    Текст #3
    Идентификатор : 5
    Формат : Timed Text
    Идентификатор кодека : tx3g
    Продолжительность : 1 ч. 48 м.
    Вид битрейта : Переменный
    Битрейт : 39 бит/сек
    Размер потока : 30, 8 Кбайт (0%)
    Заголовок : Full
    Язык : English
    Forced : Нет
    Дата кодирования : UTC 2017-10-24 08: 36: 47
    Дата пометки : UTC 2017-10-24 08: 36: 47
    Текст #4
    Идентификатор : 6
    Формат : Timed Text
    Идентификатор кодека : tx3g
    Продолжительность : 1 ч. 50 м.
    Вид битрейта : Переменный
    Битрейт : 44 бит/сек
    Размер потока : 35, 6 Кбайт (0%)
    Заголовок : SDH
    Язык : English
    Forced : Нет
    Дата кодирования : UTC 2017-10-24 08: 36: 47
    Дата пометки : UTC 2017-10-24 08: 36: 47
    Скриншоты:


    Все одноименные релизы в Клубе
    Время раздачи: с 11: 00 до 23: 00 (до появления первых 3-5 скачавших)


    Антропоид/Anthropoid (2016) HDRip [H.264] [MP4|1280x536]
    загрузка...
    Рейтинг →
     (голосов: 1, оценка 4/5, голосовать можно 1 раз )

    Другие торренты по теме:

  • Антропоид / Anthropoid (2016) BDRip [H.264 / 720p] [EN]
  • Антропоид / Anthropoid (2016) BDRip [H.264 / 1080p] [EN]
  • Антропоид / Anthropoid (2016) BDRip [H.264 / 720p-LQ]
  • Антропоид / Anthropoid (2016) HDRip
  • Антропоид / Anthropoid (2016) HDRip
  • Антропоид / Anthropoid (2016) BDRemux [H.264 / 1080p] [EN / EN, Fr, Sp Sub]
  • Антропоид / Anthropoid (2016) BDRip [H.264 / 1080p]
  • Антропоид / Anthropoid (2016) HDRip [H.264] [MP4|1024x432]


    • Комментарии (0):

      Информация

      Информация

        Посетители, находящиеся в группе Гости, не могут оставлять комментарии в данной новости.

        ↓ Меню




        ↓ Опрос

        Вы добавили сайт в закладки?
        Да
        Нет


        Top 10 за месяц (КПК и мобильные)