.
Авторизация | Регистрация
Хочешь лучшие торренты? Добавь свой email!
Добавить

Торрент скачать бесплатно

» » Фантастические твари и где они обитают / Fantastic Beasts and Where to Find Them (2016) HDRip [H.264] [MP4|1280x534] торрент скачать бесплатно




    Фантастические твари и где они обитают / Fantastic Beasts and Where to Find Them (2016) HDRip [H.264] [MP4|1280x534] торрент скачать бесплатно

    Опубликовал: Админ | Дата: 23-10-2017, 05:00 | Просмотров: 0

    Производство: Великобритания, США/Heyday Films, Warner Bros. Pictures
    Жанр: Фэнтези, Приключения, Семейный
    Режиссер: Дэвид Йейтс
    Продюсер: Нил Блэр, Дэвид Хейман, Стивен Кловз
    Актеры: Эдди Редмэйн, Кэтрин Уотерстон, Дэн Фоглер, Элисон Судол, Колин Фаррелл, Кармен Эджого, Эзра Миллер, Саманта Мортон, Рон Перлман, Джон Войт

    Описание

    Поиск и изучение необычайных волшебных существ приводят магозоолога Ньюта Саламандера в Нью-Йорк. Скорее всего, он отбыл бы на поезде дальше, если бы не не маг (так в Америке называют магглов) по имени Якоб, оставленный в неположенном месте магический чемодан и побег из него фантастических животных Ньюта.

    Возраст: 12+ (зрителям, достигшим 12 лет)
    Рейтинг MPAA: PG-13 (детям до 13 лет просмотр нежелателен)
    Дата мировой премьеры: 8 ноября 2016
    Дата российской премьеры: 17 ноября 2016, Каро-Премьер 3D
    Продолжительность: 02: 12: 52
    Качество видео: HDRip
    Перевод: Дублированный (Лицензия BD CEE)
    Субтитры: Русские (форсированные, полные), Английские (полные, SDH)
    Видео: AVC/H.264, 1280x534, ~1001 Kbps
    Аудио: AAC, 2 ch, ~192 kbps

    Общее
    Полное имя : E: DownloadFantastic Beasts 2016 720p.mp4
    Формат : MPEG-4
    Профиль формата : Base Media
    Идентификатор кодека : isom (isom)
    Размер файла : 1, 11 Гбайт
    Продолжительность : 2 ч. 12 м.
    Режим общего битрейта : Переменный
    Общий поток : 1195 Кбит/сек
    Дата кодирования : UTC 2017-10-21 15: 48: 55
    Дата пометки : UTC 2017-10-21 15: 48: 55
    Видео
    Идентификатор : 1
    Формат : AVC
    Формат/Информация : Advanced Video Codec
    Профиль формата : High@L3.1
    Настройки формата : CABAC/1 Ref Frames
    Параметр CABAC формата : Да
    Параметр RefFrames формата : 1 кадр
    Параметр GOP формата : M=1, N=60
    Идентификатор кодека : avc1
    Идентификатор кодека/Информация : Advanced Video Coding
    Продолжительность : 2 ч. 12 м.
    Битрейт : 1001 Кбит/сек
    Максимальный битрейт : 5674 Кбит/сек
    Ширина : 1280 пикселей
    Высота : 534 пикселя
    Соотношение сторон : 2, 40: 1
    Режим частоты кадров : Постоянный
    Частота кадров : 23, 976 (24000/1001) кадра/сек
    Цветовое пространство : YUV
    Субдискретизация насыщенности : 4: 2: 0
    Битовая глубина : 8 бит
    Тип развёртки : Прогрессивная
    Бит/(Пиксели*Кадры) : 0.061
    Размер потока : 951 Мбайт (84%)
    Дата пометки : UTC 2017-10-21 15: 53: 07
    Цветовой диапазон : Limited
    Основные цвета : BT.709
    Характеристики трансфера : BT.709
    Коэффициенты матрицы : BT.709
    Аудио
    Идентификатор : 2
    Формат : AAC
    Формат/Информация : Advanced Audio Codec
    Профиль формата : LC
    Идентификатор кодека : mp4a-40-2
    Продолжительность : 2 ч. 12 м.
    Вид битрейта : Переменный
    Битрейт : 192 Кбит/сек
    Максимальный битрейт : 202 Кбит/сек
    Каналы : 2 канала
    Расположение каналов : Front: L R
    Частота : 44, 1 КГц
    Частота кадров : 43, 066 кадра/сек (1024 SPF)
    Метод сжатия : С потерями
    Размер потока : 182 Мбайт (16%)
    Язык : Russian
    Дата кодирования : UTC 2017-10-21 05: 47: 34
    Дата пометки : UTC 2017-10-21 15: 53: 07
    Текст #1
    Идентификатор : 3
    Формат : Timed Text
    Идентификатор кодека : tx3g
    Продолжительность : 2 ч. 12 м.
    Вид битрейта : Переменный
    Битрейт : 2 бит/сек
    Размер потока : 1, 95 Кбайт (0%)
    Заголовок : Forced
    Язык : Russian
    Forced : Нет
    Дата кодирования : UTC 2017-10-21 15: 53: 07
    Дата пометки : UTC 2017-10-21 15: 53: 07
    Текст #2
    Идентификатор : 4
    Формат : Timed Text
    Идентификатор кодека : tx3g
    Продолжительность : 2 ч. 12 м.
    Вид битрейта : Переменный
    Битрейт : 59 бит/сек
    Размер потока : 57, 4 Кбайт (0%)
    Заголовок : Full
    Язык : Russian
    Forced : Нет
    Дата кодирования : UTC 2017-10-21 15: 53: 07
    Дата пометки : UTC 2017-10-21 15: 53: 07
    Текст #3
    Идентификатор : 5
    Формат : Timed Text
    Идентификатор кодека : tx3g
    Продолжительность : 2 ч. 12 м.
    Вид битрейта : Переменный
    Битрейт : 47 бит/сек
    Размер потока : 45, 5 Кбайт (0%)
    Заголовок : Full
    Язык : English
    Forced : Нет
    Дата кодирования : UTC 2017-10-21 15: 53: 07
    Дата пометки : UTC 2017-10-21 15: 53: 07
    Текст #4
    Идентификатор : 6
    Формат : Timed Text
    Идентификатор кодека : tx3g
    Продолжительность : 2 ч. 12 м.
    Вид битрейта : Переменный
    Битрейт : 54 бит/сек
    Размер потока : 52, 8 Кбайт (0%)
    Заголовок : SDH
    Язык : English
    Forced : Нет
    Дата кодирования : UTC 2017-10-21 15: 53: 07
    Дата пометки : UTC 2017-10-21 15: 53: 07
    Скриншоты:


    Все одноименные релизы в Клубе
    Время раздачи: с 11: 00 до 23: 00 (до появления первых 3-5 скачавших)


    Фантастические твари и где они обитают/Fantastic Beasts and Where to Find Them (2016) HDRip [H.264] [MP4|1280x534]
    загрузка...
    Рейтинг →
     (голосов: 1, оценка 4/5, голосовать можно 1 раз )

    Другие торренты по теме:



      Комментарии (0):

      Информация

      Информация

        Посетители, находящиеся в группе Гости, не могут оставлять комментарии в данной новости.

        ↓ Меню




        ↓ Опрос

        Вы добавили сайт в закладки?
        Да
        Нет


        Top 10 за месяц (КПК и мобильные)