.
Авторизация | Регистрация
Хочешь лучшие торренты? Добавь свой email!
Добавить

Торрент скачать бесплатно

» » Расплата / The Accountant (2016) HDRip [H.264] [MP4|1920x800] торрент скачать бесплатно




    Расплата / The Accountant (2016) HDRip [H.264] [MP4|1920x800] торрент скачать бесплатно

    Опубликовал: Админ | Дата: 23-10-2017, 05:00 | Просмотров: 0

    Производство: США/Warner Bros. Pictures, RatPac-Dune Entertainment, Zero Gravity Management
    Жанр: Боевик, Триллер, Драма, Криминал
    Режиссер: Гэвин О’Коннор
    Продюсер: Марти П. Юинг, Линетт Хауэлл, Стивен Мнучин
    Актеры: Бен Аффлек, Анна Кендрик, Дж.К. Симмонс, Джон Бернтал, Джеффри Тэмбор, Синтия Аддай-Робинсон, Джон Литгоу, Джин Смарт, Энди Умбергер, Элисон Райт

    Описание

    Лента расскажет историю математического гения Кристиана Вульфа, который подрабатывает аудитором для самых опасных преступных организаций. Когда ему на хвост садится отдел по борьбе с преступностью Министерства финансов во главе с Рэем Кингом, Кристиан решает найти себе законопослушного клиента и проводит аудит в компании по производству новейшей робототехники, где сотрудница финансового отдела обнаружила нестыковочку в миллионы долларов. Но стоит Кристиану взяться за счета и выйти на след, как в деле начинают появляться жертвы.

    Возраст: 18+ (зрителям, достигшим 18 лет. запрещено для детей)
    Рейтинг MPAA: R (лицам до 17 лет обязательно присутствие взрослого)
    Дата мировой премьеры: 13 октября 2016
    Дата российской премьеры: 27 октября 2016, Каро-Премьер
    Продолжительность: 02: 07: 54
    Качество видео: HDRip
    Перевод: Дублированный (Лицензия BD EUR)
    Субтитры: Русские (форсированные, полные), Английские (полные, SDH)
    Видео: AVC/H.264, 1920x800, ~1535 Kbps
    Аудио: AC3, 6 ch, 384 kbps

    Общее
    Полное имя : E: DownloadThe Accountant 2016 1080p.mp4
    Формат : MPEG-4
    Профиль формата : Base Media
    Идентификатор кодека : isom (isom/avc1/iso6)
    Размер файла : 1, 72 Гбайт
    Продолжительность : 2 ч. 7 м.
    Режим общего битрейта : Переменный
    Общий поток : 1921 Кбит/сек
    Дата кодирования : UTC 2017-10-22 08: 24: 19
    Дата пометки : UTC 2017-10-22 08: 24: 19
    Видео
    Идентификатор : 1
    Формат : AVC
    Формат/Информация : Advanced Video Codec
    Профиль формата : High@L4
    Настройки формата : CABAC/2 Ref Frames
    Параметр CABAC формата : Да
    Параметр RefFrames формата : 2 кадра
    Идентификатор кодека : avc1
    Идентификатор кодека/Информация : Advanced Video Coding
    Продолжительность : 2 ч. 7 м.
    Битрейт : 1535 Кбит/сек
    Максимальный битрейт : 8381 Кбит/сек
    Ширина : 1920 пикселей
    Высота : 800 пикселей
    Соотношение сторон : 2, 40: 1
    Режим частоты кадров : Постоянный
    Частота кадров : 23, 976 (24000/1001) кадра/сек
    Цветовое пространство : YUV
    Субдискретизация насыщенности : 4: 2: 0
    Битовая глубина : 8 бит
    Тип развёртки : Прогрессивная
    Бит/(Пиксели*Кадры) : 0.042
    Размер потока : 1, 37 Гбайт (80%)
    Дата кодирования : UTC 2017-10-22 08: 24: 19
    Дата пометки : UTC 2017-10-22 08: 26: 17
    Цветовой диапазон : Limited
    Основные цвета : BT.709
    Характеристики трансфера : BT.709
    Коэффициенты матрицы : BT.709
    Аудио
    Идентификатор : 2
    Формат : AC-3
    Формат/Информация : Audio Coding 3
    Параметр Endianness формата : Big
    Идентификатор кодека : ac-3
    Продолжительность : 2 ч. 7 м.
    Вид битрейта : Постоянный
    Битрейт : 384 Кбит/сек
    Максимальный битрейт : 406 Кбит/сек
    Каналы : 6 каналов
    Расположение каналов : Front: L C R, Side: L R, LFE
    Частота : 48, 0 КГц
    Частота кадров : 31, 250 кадров/сек (1536 SPF)
    Битовая глубина : 16 бит
    Метод сжатия : С потерями
    Размер потока : 351 Мбайт (20%)
    Язык : Russian
    ServiceKind/String : Complete Main
    Дата кодирования : UTC 2017-10-22 08: 25: 47
    Дата пометки : UTC 2017-10-22 08: 26: 17
    Текст #1
    Идентификатор : 3
    Формат : Timed Text
    Идентификатор кодека : tx3g
    Продолжительность : 1 ч. 55 м.
    Вид битрейта : Переменный
    Битрейт : 3 бит/сек
    Размер потока : 2, 20 Кбайт (0%)
    Заголовок : Forced
    Язык : Russian
    Forced : Нет
    Дата кодирования : UTC 2017-10-22 08: 26: 17
    Дата пометки : UTC 2017-10-22 08: 26: 17
    Текст #2
    Идентификатор : 4
    Формат : Timed Text
    Идентификатор кодека : tx3g
    Продолжительность : 2 ч. 7 м.
    Вид битрейта : Переменный
    Битрейт : 108 бит/сек
    Размер потока : 101 Кбайт (0%)
    Заголовок : Full
    Язык : Russian
    Forced : Нет
    Дата кодирования : UTC 2017-10-22 08: 26: 17
    Дата пометки : UTC 2017-10-22 08: 26: 17
    Текст #3
    Идентификатор : 5
    Формат : Timed Text
    Идентификатор кодека : tx3g
    Продолжительность : 1 ч. 59 м.
    Вид битрейта : Переменный
    Битрейт : 60 бит/сек
    Размер потока : 52, 9 Кбайт (0%)
    Заголовок : Full
    Язык : English
    Forced : Нет
    Дата кодирования : UTC 2017-10-22 08: 26: 17
    Дата пометки : UTC 2017-10-22 08: 26: 17
    Текст #4
    Идентификатор : 6
    Формат : Timed Text
    Идентификатор кодека : tx3g
    Продолжительность : 2 ч. 0 м.
    Вид битрейта : Переменный
    Битрейт : 66 бит/сек
    Размер потока : 58, 4 Кбайт (0%)
    Заголовок : SDH
    Язык : English
    Forced : Нет
    Дата кодирования : UTC 2017-10-22 08: 26: 17
    Дата пометки : UTC 2017-10-22 08: 26: 17
    Скриншоты:


    Все одноименные релизы в Клубе
    Время раздачи: с 11: 00 до 23: 00 (до появления первых 3-5 скачавших)


    Расплата/The Accountant (2016) HDRip [H.264] [MP4|1920x800]
    загрузка...
    Рейтинг →
     (голосов: 1, оценка 5/5, голосовать можно 1 раз )

    Другие торренты по теме:

  • Расплата / The Accountant (2016) WEBRip [H.264 / 1080p] [Трейлер]
  • Расплата / The Accountant (2016) TS
  • Расплата / The Accountant (2016) TS
  • Расплата / The Accountant (2016) WEBRip [H.264 / 1080p-LQ] [Звук с TS]
  • Расплата / The Accountant (2016) WEBRip [H.264] [VO]
  • Расплата / The Accountant (2016) WEBRip [Line]
  • Расплата / The Accountant (2016) WEBRip [H.264 / 1080p-LQ] [Line]
  • Расплата / The Accountant (2016) WEBRip [Line]


    • Комментарии (0):

      Информация

      Информация

        Посетители, находящиеся в группе Гости, не могут оставлять комментарии в данной новости.

        ↓ Меню




        ↓ Опрос

        Вы добавили сайт в закладки?
        Да
        Нет


        Top 10 за месяц (КПК и мобильные)