.
Авторизация | Регистрация
Хочешь лучшие торренты? Добавь свой email!
Добавить

Торрент скачать бесплатно

» » Расплата / The Accountant (2016) HDRip [H.264] [MP4|1280x534] торрент скачать бесплатно




    Расплата / The Accountant (2016) HDRip [H.264] [MP4|1280x534] торрент скачать бесплатно

    Опубликовал: Админ | Дата: 23-10-2017, 05:00 | Просмотров: 0

    Производство: США/Warner Bros. Pictures, RatPac-Dune Entertainment, Zero Gravity Management
    Жанр: Боевик, Триллер, Драма, Криминал
    Режиссер: Гэвин О’Коннор
    Продюсер: Марти П. Юинг, Линетт Хауэлл, Стивен Мнучин
    Актеры: Бен Аффлек, Анна Кендрик, Дж.К. Симмонс, Джон Бернтал, Джеффри Тэмбор, Синтия Аддай-Робинсон, Джон Литгоу, Джин Смарт, Энди Умбергер, Элисон Райт

    Описание

    Лента расскажет историю математического гения Кристиана Вульфа, который подрабатывает аудитором для самых опасных преступных организаций. Когда ему на хвост садится отдел по борьбе с преступностью Министерства финансов во главе с Рэем Кингом, Кристиан решает найти себе законопослушного клиента и проводит аудит в компании по производству новейшей робототехники, где сотрудница финансового отдела обнаружила нестыковочку в миллионы долларов. Но стоит Кристиану взяться за счета и выйти на след, как в деле начинают появляться жертвы.

    Возраст: 18+ (зрителям, достигшим 18 лет. запрещено для детей)
    Рейтинг MPAA: R (лицам до 17 лет обязательно присутствие взрослого)
    Дата мировой премьеры: 13 октября 2016
    Дата российской премьеры: 27 октября 2016, Каро-Премьер
    Продолжительность: 02: 07: 54
    Качество видео: HDRip
    Перевод: Дублированный (Лицензия BD EUR)
    Субтитры: Русские (форсированные, полные), Английские (полные, SDH)
    Видео: AVC/H.264, 1280x534, ~887 Kbps
    Аудио: AAC, 2 ch, ~192 kbps

    Общее
    Полное имя : E: DownloadThe Accountant 2016 720p.mp4
    Формат : MPEG-4
    Профиль формата : Base Media
    Идентификатор кодека : isom (isom)
    Размер файла : 989 Мбайт
    Продолжительность : 2 ч. 7 м.
    Режим общего битрейта : Переменный
    Общий поток : 1081 Кбит/сек
    Дата кодирования : UTC 2017-10-22 08: 50: 03
    Дата пометки : UTC 2017-10-22 08: 50: 03
    Видео
    Идентификатор : 1
    Формат : AVC
    Формат/Информация : Advanced Video Codec
    Профиль формата : High@L3.1
    Настройки формата : CABAC/1 Ref Frames
    Параметр CABAC формата : Да
    Параметр RefFrames формата : 1 кадр
    Идентификатор кодека : avc1
    Идентификатор кодека/Информация : Advanced Video Coding
    Продолжительность : 2 ч. 7 м.
    Битрейт : 887 Кбит/сек
    Максимальный битрейт : 6331 Кбит/сек
    Ширина : 1280 пикселей
    Высота : 534 пикселя
    Соотношение сторон : 2, 40: 1
    Режим частоты кадров : Постоянный
    Частота кадров : 23, 976 (24000/1001) кадра/сек
    Цветовое пространство : YUV
    Субдискретизация насыщенности : 4: 2: 0
    Битовая глубина : 8 бит
    Тип развёртки : Прогрессивная
    Бит/(Пиксели*Кадры) : 0.054
    Размер потока : 811 Мбайт (82%)
    Дата пометки : UTC 2017-10-22 08: 55: 43
    Цветовой диапазон : Limited
    Основные цвета : BT.709
    Характеристики трансфера : BT.709
    Коэффициенты матрицы : BT.709
    Аудио
    Идентификатор : 2
    Формат : AAC
    Формат/Информация : Advanced Audio Codec
    Профиль формата : LC
    Идентификатор кодека : mp4a-40-2
    Продолжительность : 2 ч. 7 м.
    Вид битрейта : Переменный
    Битрейт : 192 Кбит/сек
    Максимальный битрейт : 202 Кбит/сек
    Каналы : 2 канала
    Расположение каналов : Front: L R
    Частота : 44, 1 КГц
    Частота кадров : 43, 066 кадра/сек (1024 SPF)
    Метод сжатия : С потерями
    Размер потока : 176 Мбайт (18%)
    Язык : Russian
    Дата кодирования : UTC 2017-10-22 06: 03: 18
    Дата пометки : UTC 2017-10-22 08: 55: 43
    Текст #1
    Идентификатор : 3
    Формат : Timed Text
    Идентификатор кодека : tx3g
    Продолжительность : 1 ч. 55 м.
    Вид битрейта : Переменный
    Битрейт : 3 бит/сек
    Размер потока : 2, 20 Кбайт (0%)
    Заголовок : Forced
    Язык : Russian
    Forced : Нет
    Дата кодирования : UTC 2017-10-22 08: 55: 42
    Дата пометки : UTC 2017-10-22 08: 55: 43
    Текст #2
    Идентификатор : 4
    Формат : Timed Text
    Идентификатор кодека : tx3g
    Продолжительность : 2 ч. 7 м.
    Вид битрейта : Переменный
    Битрейт : 108 бит/сек
    Размер потока : 101 Кбайт (0%)
    Заголовок : Full
    Язык : Russian
    Forced : Нет
    Дата кодирования : UTC 2017-10-22 08: 55: 42
    Дата пометки : UTC 2017-10-22 08: 55: 43
    Текст #3
    Идентификатор : 5
    Формат : Timed Text
    Идентификатор кодека : tx3g
    Продолжительность : 1 ч. 59 м.
    Вид битрейта : Переменный
    Битрейт : 60 бит/сек
    Размер потока : 52, 9 Кбайт (0%)
    Заголовок : Full
    Язык : English
    Forced : Нет
    Дата кодирования : UTC 2017-10-22 08: 55: 43
    Дата пометки : UTC 2017-10-22 08: 55: 43
    Текст #4
    Идентификатор : 6
    Формат : Timed Text
    Идентификатор кодека : tx3g
    Продолжительность : 2 ч. 0 м.
    Вид битрейта : Переменный
    Битрейт : 66 бит/сек
    Размер потока : 58, 4 Кбайт (0%)
    Заголовок : SDH
    Язык : English
    Forced : Нет
    Дата кодирования : UTC 2017-10-22 08: 55: 43
    Дата пометки : UTC 2017-10-22 08: 55: 43
    Скриншоты:


    Все одноименные релизы в Клубе
    Время раздачи: с 11: 00 до 23: 00 (до появления первых 3-5 скачавших)


    Расплата/The Accountant (2016) HDRip [H.264] [MP4|1280x534]
    загрузка...
    Рейтинг →
     (голосов: 1, оценка 4/5, голосовать можно 1 раз )

    Другие торренты по теме:

  • Расплата / The Accountant (2016) WEBRip [H.264 / 1080p] [Трейлер]
  • Расплата / The Accountant (2016) TS
  • Расплата / The Accountant (2016) TS
  • Расплата / The Accountant (2016) WEBRip [H.264 / 1080p-LQ] [Звук с TS]
  • Расплата / The Accountant (2016) WEBRip [H.264] [VO]
  • Расплата / The Accountant (2016) WEBRip [Line]
  • Расплата / The Accountant (2016) WEBRip [H.264 / 1080p-LQ] [Line]
  • Расплата / The Accountant (2016) WEBRip [Line]


    • Комментарии (0):

      Информация

      Информация

        Посетители, находящиеся в группе Гости, не могут оставлять комментарии в данной новости.

        ↓ Меню




        ↓ Опрос

        Вы добавили сайт в закладки?
        Да
        Нет


        Top 10 за месяц (КПК и мобильные)