.
Авторизация | Регистрация
Хочешь лучшие торренты? Добавь свой email!
Добавить

Торрент скачать бесплатно

» » Призрак в доспехах / Ghost in the Shell (2017) HDRip [H.264] [MP4|1280x720] торрент скачать бесплатно




    Призрак в доспехах / Ghost in the Shell (2017) HDRip [H.264] [MP4|1280x720] торрент скачать бесплатно

    Опубликовал: Админ | Дата: 21-10-2017, 18:15 | Просмотров: 1

    Производство: США, Индия, Китай, Япония, Гонконг, Великобритания, Новая Зеландия, Канада, Австралия/Paramount Pictures
    Жанр: Фантастика, Боевик, Триллер, Драма
    Режиссер: Руперт Сандерс
    Продюсер: Майкл Костиган, Стивен Пол, Рэй Анджелик
    Актеры: Скарлетт Йоханссон, Йохан Филип Асбек, Такеши Китано, Жюльетт Бинош, Майкл Питт, Чин Хань, Дануся Самал, Ласарус Ратуэре, Ютака Идзумихара, Таванда Маниймо

    Описание

    Кибер-технологии подчинили себе все сферы жизни, а самые опасные преступники переместились в виртуальное пространство. Киборг-гибрид, стоящий во главе элитного подразделения полиции, идет по следу могущественного хакера.

    Дата мировой премьеры: 16 марта 2017
    Дата российской премьеры: 30 марта 2017, Централ Партнершип
    Дата выхода DVD/Blu-ray релиза: 31 июля 2017, НД Плэй
    Продолжительность: 01: 46: 56
    Качество видео: HDRip
    Перевод: Дублированный (Лицензия BD EUR)
    Субтитры: отсутствуют
    Видео: AVC/H.264, 1280x720, ~1230 Kbps
    Аудио: AAC, 2 ch, ~192 Kbps

    Общее
    Полное имя : E: DownloadGhost in the Shell 2017 720p.mp4
    Формат : MPEG-4
    Профиль формата : Base Media
    Идентификатор кодека : isom (isom)
    Размер файла : 1, 06 Гбайт
    Продолжительность : 1 ч. 46 м.
    Режим общего битрейта : Переменный
    Общий поток : 1424 Кбит/сек
    Дата кодирования : UTC 2017-10-19 08: 12: 35
    Дата пометки : UTC 2017-10-19 08: 12: 35
    Видео
    Идентификатор : 1
    Формат : AVC
    Формат/Информация : Advanced Video Codec
    Профиль формата : High@L3.1
    Настройки формата : CABAC/1 Ref Frames
    Параметр CABAC формата : Да
    Параметр RefFrames формата : 1 кадр
    Идентификатор кодека : avc1
    Идентификатор кодека/Информация : Advanced Video Coding
    Продолжительность : 1 ч. 46 м.
    Продолжительность оригинала : 1 ч. 46 м.
    Битрейт : 1230 Кбит/сек
    Максимальный битрейт : 8128 Кбит/сек
    Ширина : 1280 пикселей
    Высота : 720 пикселей
    Соотношение сторон : 16: 9
    Режим частоты кадров : Постоянный
    Частота кадров : 23, 976 (24000/1001) кадра/сек
    Цветовое пространство : YUV
    Субдискретизация насыщенности : 4: 2: 0
    Битовая глубина : 8 бит
    Тип развёртки : Прогрессивная
    Бит/(Пиксели*Кадры) : 0.056
    Размер потока : 941 Мбайт (86%)
    Размер потока оригинала : 941 Мбайт (86%)
    Дата пометки : UTC 2017-10-19 08: 16: 48
    Цветовой диапазон : Limited
    Основные цвета : BT.709
    Характеристики трансфера : BT.709
    Коэффициенты матрицы : BT.709
    Аудио
    Идентификатор : 2
    Формат : AAC
    Формат/Информация : Advanced Audio Codec
    Профиль формата : LC
    Идентификатор кодека : mp4a-40-2
    Продолжительность : 1 ч. 46 м.
    Вид битрейта : Переменный
    Битрейт : 192 Кбит/сек
    Максимальный битрейт : 202 Кбит/сек
    Каналы : 2 канала
    Расположение каналов : Front: L R
    Частота : 44, 1 КГц
    Частота кадров : 43, 066 кадра/сек (1024 SPF)
    Метод сжатия : С потерями
    Размер потока : 147 Мбайт (13%)
    Язык : Russian
    Дата кодирования : UTC 2017-10-17 13: 59: 56
    Дата пометки : UTC 2017-10-19 08: 16: 48
    Скриншоты:


    Все одноименные релизы в Клубе
    Время раздачи: с 11: 00 до 23: 00 (до появления первых 3-5 скачавших)

    Призрак в доспехах/Ghost in the Shell (2017) HDRip [H.264] [MP4|1280x720]
    загрузка...
    Рейтинг →
     (голосов: 1, оценка 4/5, голосовать можно 1 раз )

    Другие торренты по теме:

  • Koukaku Kidoutai Arise: Ghost in the Shell / Ghost in the Shell: Arise / Призрак в доспехах OVA [2013, OVA, 3 из 4 ep] BDRip Hi10p 720p Raw+Rus x3(ext)
  • Ghost in the Shell: Arise / Призрак в доспехах: Начало [2013-2014, OVA, 1-4 из 4] BD-Remux 1080 Raw+Rus скачать через торрент бесплатно
  • Koukaku Kidoutai S.A.C. 2nd GIG | Ghost in the Shell: Stand Alone Complex 2nd GIG | Призрак в доспехах: Синдром одиночки (ТВ-2) [2004, TV, 26 эп.] BDRip 1080p raw+rus скачать через торрент бесплатно
  • Koukaku Kidoutai Stand Alone Complex | Ghost in the Shell: Stand Alone Complex | Призрак в доспехах: Синдром одиночки (ТВ-1) [2002, TV, 26 эп.] BDRip 1080p raw+rus скачать через торрент бесплатно
  • Koukaku Kidoutai Arise: PYROPHORIC CULT / Ghost in the Shell ARISE: PYROPHORIC CULT / Призрак в Доспехах: Истоки – Пирофорный культ [2015, OVA] BDRip 1080p raw+rus
  • Koukaku Kidoutai: Shin Gekijouban | Ghost in the Shell New Movie | Призрак в Доспехах: Новый Фильм [2015, MV] BDRip 1080p Hi10P raw
  • Koukaku Kidoutai: Shin Gekijouban / Ghost in the Shell: New Movie / Призрак в Доспехах: Новый Фильм [2015, Movie] BDRip 1080p raw+rus
  • Koukaku Kidoutai: Shin Gekijouban / Ghost in the Shell: New Movie / Призрак в Доспехах: Новый Фильм [2015, Movie] BDrip 720p raw+rus


    • Комментарии (0):

      Информация

      Информация

        Посетители, находящиеся в группе Гости, не могут оставлять комментарии в данной новости.

        ↓ Меню




        ↓ Опрос

        Вы добавили сайт в закладки?
        Да
        Нет


        Top 10 за месяц (КПК и мобильные)