.
Авторизация | Регистрация
Хочешь лучшие торренты? Добавь свой email!
Добавить

Торрент скачать бесплатно

» » Прибытие / Arrival (2016) HDRip [H.264] [MP4|1280x536] торрент скачать бесплатно




    Прибытие / Arrival (2016) HDRip [H.264] [MP4|1280x536] торрент скачать бесплатно

    Опубликовал: Админ | Дата: 21-10-2017, 18:15 | Просмотров: 0

    Производство: США/21 Laps Entertainment, FilmNation Entertainment, Lava Bear Films
    Жанр: Фантастика, Триллер, Драма, Детектив
    Режиссер: Дени Вильнёв
    Продюсер: Пол Барбо, Глен Баснер, Дэн Коэн
    Актеры: Эми Адамс, Джереми Реннер, Форест Уитакер, Майкл Стулбарг, Натали Тибо, Марк О’Брайэн, Ци Ма, Эбигейл Пнёвски, Леиза Рейд, Фрэнк Фиола

    Описание

    Неожиданное появление неопознанных летающих объектов в разных точках планеты повергает мир в трепет. Намерения пришельцев не ясны — вооруженные силы всего мира приведены в полную боевую готовность, а лучшие умы человечества пытаются понять, как разговаривать с непрошенными гостями. Правительство обращается за помощью к лингвисту Луизе Бэнкс и физику Яну Доннели, чтобы предотвратить глобальную катастрофу и найти общий язык с пришельцами. Отныне судьба человечества находится в их руках.

    Возраст: 16+ (зрителям, достигшим 16 лет)
    Рейтинг MPAA: PG-13 (детям до 13 лет просмотр нежелателен)
    Дата мировой премьеры: 1 сентября 2016
    Дата российской премьеры: 11 ноября 2016, WDSSPR
    Продолжительность: 01: 56: 22
    Качество видео: HDRip
    Перевод: Дублированный (iTunes)
    Субтитры: Русские (форсированные, полные), Английские (форсированные, полные)
    Видео: AVC/H.264, 1280x536, ~703 Kbps
    Аудио: AAC, 2 ch, ~192 Kbps

    Общее
    Полное имя : E: DownloadArrival 2016 720p.mp4
    Формат : MPEG-4
    Профиль формата : Base Media
    Идентификатор кодека : isom (isom)
    Размер файла : 748 Мбайт
    Продолжительность : 1 ч. 56 м.
    Режим общего битрейта : Переменный
    Общий поток : 898 Кбит/сек
    Дата кодирования : UTC 2017-10-20 13: 57: 28
    Дата пометки : UTC 2017-10-20 13: 57: 28
    Видео
    Идентификатор : 1
    Формат : AVC
    Формат/Информация : Advanced Video Codec
    Профиль формата : High@L3.1
    Настройки формата : CABAC/1 Ref Frames
    Параметр CABAC формата : Да
    Параметр RefFrames формата : 1 кадр
    Идентификатор кодека : avc1
    Идентификатор кодека/Информация : Advanced Video Coding
    Продолжительность : 1 ч. 56 м.
    Битрейт : 703 Кбит/сек
    Максимальный битрейт : 5007 Кбит/сек
    Ширина : 1280 пикселей
    Высота : 536 пикселей
    Соотношение сторон : 2, 40: 1
    Режим частоты кадров : Постоянный
    Частота кадров : 23, 976 (24000/1001) кадра/сек
    Цветовое пространство : YUV
    Субдискретизация насыщенности : 4: 2: 0
    Битовая глубина : 8 бит
    Тип развёртки : Прогрессивная
    Бит/(Пиксели*Кадры) : 0.043
    Размер потока : 586 Мбайт (78%)
    Дата пометки : UTC 2017-10-20 14: 00: 07
    Цветовой диапазон : Limited
    Основные цвета : BT.709
    Характеристики трансфера : BT.709
    Коэффициенты матрицы : BT.709
    Аудио
    Идентификатор : 2
    Формат : AAC
    Формат/Информация : Advanced Audio Codec
    Профиль формата : LC
    Идентификатор кодека : mp4a-40-2
    Продолжительность : 1 ч. 56 м.
    Вид битрейта : Переменный
    Битрейт : 192 Кбит/сек
    Максимальный битрейт : 202 Кбит/сек
    Каналы : 2 канала
    Расположение каналов : Front: L R
    Частота : 44, 1 КГц
    Частота кадров : 43, 066 кадра/сек (1024 SPF)
    Метод сжатия : С потерями
    Размер потока : 160 Мбайт (21%)
    Язык : Russian
    Дата кодирования : UTC 2017-10-20 11: 28: 16
    Дата пометки : UTC 2017-10-20 14: 00: 07
    Текст #1
    Идентификатор : 3
    Формат : Timed Text
    Идентификатор кодека : tx3g
    Продолжительность : 1 ч. 50 м.
    Вид битрейта : Переменный
    Битрейт : 2 бит/сек
    Размер потока : 1, 26 Кбайт (0%)
    Заголовок : Forced
    Язык : Russian
    Forced : Нет
    Дата кодирования : UTC 2017-10-20 14: 00: 06
    Дата пометки : UTC 2017-10-20 14: 00: 07
    Текст #2
    Идентификатор : 4
    Формат : Timed Text
    Идентификатор кодека : tx3g
    Продолжительность : 1 ч. 50 м.
    Вид битрейта : Переменный
    Битрейт : 106 бит/сек
    Размер потока : 86, 0 Кбайт (0%)
    Заголовок : Full
    Язык : Russian
    Forced : Нет
    Дата кодирования : UTC 2017-10-20 14: 00: 07
    Дата пометки : UTC 2017-10-20 14: 00: 07
    Текст #3
    Идентификатор : 5
    Формат : Timed Text
    Идентификатор кодека : tx3g
    Продолжительность : 1 ч. 31 м.
    Вид битрейта : Переменный
    Битрейт : 0 бит/сек
    Размер потока : 185 байт (0%)
    Заголовок : Forced
    Язык : English
    Forced : Нет
    Дата кодирования : UTC 2017-10-20 14: 00: 07
    Дата пометки : UTC 2017-10-20 14: 00: 07
    Текст #4
    Идентификатор : 6
    Формат : Timed Text
    Идентификатор кодека : tx3g
    Продолжительность : 1 ч. 50 м.
    Вид битрейта : Переменный
    Битрейт : 54 бит/сек
    Размер потока : 44, 0 Кбайт (0%)
    Заголовок : Full
    Язык : English
    Forced : Нет
    Дата кодирования : UTC 2017-10-20 14: 00: 07
    Дата пометки : UTC 2017-10-20 14: 00: 07
    Скриншоты:


    Все одноименные релизы в Клубе
    Время раздачи: с 11: 00 до 23: 00 (до появления первых 3-5 скачавших)

    Прибытие/Arrival (2016) HDRip [H.264] [MP4|1280x536]
    загрузка...
    Рейтинг →
     (голосов: 1, оценка 4/5, голосовать можно 1 раз )

    Другие торренты по теме:

  • Прибытие / Arrival (2016) WEBRip [H.264 / 1080p] [Трейлер]
  • Прибытие / Arrival (2016) CamRip
  • Прибытие / Arrival (2016) CamRip [H.264]
  • Прибытие / Arrival (2016) DVDScr [Line]
  • Прибытие / Arrival (2016) WEB-DL [H.264 / 720p-LQ] [Line]
  • Прибытие / Arrival (2016) WEB-DLRip [Line]
  • Прибытие / Arrival (2016) WEB-DL [H.264 / 1080p-LQ] [Line]
  • Прибытие / Arrival (2016) WEB-DLRip


    • Комментарии (0):

      Информация

      Информация

        Посетители, находящиеся в группе Гости, не могут оставлять комментарии в данной новости.

        ↓ Меню




        ↓ Опрос

        Вы добавили сайт в закладки?
        Да
        Нет


        Top 10 за месяц (КПК и мобильные)