.
Авторизация | Регистрация
Хочешь лучшие торренты? Добавь свой email!
Добавить

Торрент скачать бесплатно

» » Ночь длиною в жизнь (2010) WEBRip [H.264] [MP4|1920x1038] торрент скачать бесплатно




    Ночь длиною в жизнь (2010) WEBRip [H.264] [MP4|1920x1038] торрент скачать бесплатно

    Опубликовал: Админ | Дата: 21-10-2017, 18:15 | Просмотров: 0

    Производство: Россия
    Жанр: Драма, военный
    Режиссер: Николай Хомерики
    Актеры: Анастасия Веденская, Владимир Епифанцев, Владимир Яглыч, Надежда Боргесани-Горшкова, Сергей Баталов, Сергей Кемпо, Игорь Самойлов

    Описание

    1941 год. Зинке 17 лет, она заканчивает школу и дружит с двумя мальчиками Володей и Петей. Втроем они увлеченно играют в драмкружке, которым руководит учитель немецкого языка Лобов. Но начинается война. Окончивший летное училище Володя уходит на фронт. Перед этим, на дне рождении Зины он признается ей в любви. Петя и Зина остаются работать в госпитале. Мир юной девушки переворачивается...

    Возраст: 16+ (зрителям, достигшим 16 лет)
    Релиз от: Алехаndr
    Продолжительность: 01: 30: 59
    Качество видео: WEBRip
    Субтитры: Отсутствуют
    Видео: AVC/H.264, 1920x1038 (1.85: 1), ~2720 Kbps
    Аудио: AAC, 2 ch, 126 Kbps

    Общее
    Полное имя : D: Ночь длиною в жизнь (2010).by.Алехаndr.mp4
    Формат : MPEG-4
    Профиль формата : Base Media
    Идентификатор кодека : isom (isom/iso2/avc1/mp41)
    Размер файла : 1, 81 Гбайт
    Продолжительность : 1 ч. 30 м.
    Общий поток : 2852 Кбит/сек
    Программа кодирования : Lavf57.2.100
    Видео
    Идентификатор : 1
    Формат : AVC
    Формат/Информация : Advanced Video Codec
    Профиль формата : High@L4
    Настройки формата : CABAC/2 Ref Frames
    Параметр CABAC формата : Да
    Параметр RefFrames формата : 2 кадра
    Идентификатор кодека : avc1
    Идентификатор кодека/Информация : Advanced Video Coding
    Продолжительность : 1 ч. 30 м.
    Битрейт : 2720 Кбит/сек
    Ширина : 1920 пикселей
    Высота : 1038 пикселей
    Соотношение сторон : 1, 85: 1
    Режим частоты кадров : Постоянный
    Частота кадров : 25, 000 кадров/сек
    Цветовое пространство : YUV
    Субдискретизация насыщенности : 4: 2: 0
    Битовая глубина : 8 бит
    Тип развёртки : Прогрессивная
    Бит/(Пиксели*Кадры) : 0.055
    Размер потока : 1, 73 Гбайт (95%)
    Цветовой диапазон : Limited
    Основные цвета : BT.709
    Характеристики трансфера : BT.709
    Коэффициенты матрицы : BT.709
    Аудио
    Идентификатор : 2
    Формат : AAC
    Формат/Информация : Advanced Audio Codec
    Профиль формата : LC
    Идентификатор кодека : mp4a-40-2
    Продолжительность : 1 ч. 30 м.
    Вид битрейта : Постоянный
    Битрейт : 126 Кбит/сек
    Каналы : 2 канала
    Расположение каналов : Front: L R
    Частота : 44, 1 КГц
    Частота кадров : 43, 066 кадра/сек (1024 SPF)
    Метод сжатия : С потерями
    Размер потока : 81, 7 Мбайт (4%)
    Default : Да
    AlternateGroup/String : 1
    Скриншоты:


    Все одноименные релизы в Клубе
    Время раздачи: 24/7 (круглосуточно) (до появления первых 3-5 скачавших)

    Ночь длиною в жизнь (2010) WEBRip [H.264] [MP4|1920x1038]
    загрузка...
    Рейтинг →
     (голосов: 1, оценка 4/5, голосовать можно 1 раз )

    Другие торренты по теме:

  • Тана Френч | Ночь длиною в жизнь (2016) [MP3]


    • Комментарии (0):

      Информация

      Информация

        Посетители, находящиеся в группе Гости, не могут оставлять комментарии в данной новости.

        ↓ Меню




        ↓ Опрос

        Вы добавили сайт в закладки?
        Да
        Нет


        Top 10 за месяц (КПК и мобильные)