.
Авторизация | Регистрация
Хочешь лучшие торренты? Добавь свой email!
Добавить

Торрент скачать бесплатно

» » Невидимый гость / Contratiempo (2016) HDRip [H.264] [MP4|1280x536] [AD] торрент скачать бесплатно




    Невидимый гость / Contratiempo (2016) HDRip [H.264] [MP4|1280x536] [AD] торрент скачать бесплатно

    Опубликовал: Админ | Дата: 19-10-2017, 05:00 | Просмотров: 0

    Производство: Испания, Atresmedia Cine, Think Studio, Nostromo Pictures
    Жанр: Триллер, Криминал, Детектив
    Режиссер: Ориол Паоло
    Продюсер: Мерседес Гамеро, Адриан Герра, Микель Лехарса
    Актеры: Марио Касас, Хосе Коронадо, Барбара Ленни, Ана Вахенер

    Описание

    В один прекрасный день молодой бизнесмен Эдриан Дориа просыпается в закрытом изнутри номере отеля рядом с бездыханным телом своей любовницы. Его обвиняют в убийстве, но он, не считая себя виновным, решает воспользоваться услугами Вирджинии Гудман, лучшего в стране специалиста по выходу из самых сложных ситуаций. В течение одной ночи консультант и её клиент будут работать, чтобы найти разумное опровержение обвинению, и, тем самым, высвободить его из тюрьмы.

    Дата мировой премьеры: 23 сентября 2016
    Продолжительность: 01: 46: 23
    Качество видео: HDRip
    Перевод: Многоголосый закадровый, профессиональный (Синема УС)
    Субтитры: отсутствуют
    Реклама: присутствуют аудио и видео вставки рекламы
    Видео: AVC/H.264, 1280x536, ~822 Kbps
    Аудио: AAC, 2 ch, ~192 Kbps

    Общее
    Полное имя : E: DownloadThe Invisible Guest 2016 720p.mp4
    Формат : MPEG-4
    Профиль формата : Base Media
    Идентификатор кодека : isom (isom)
    Размер файла : 774 Мбайт
    Продолжительность : 1 ч. 46 м.
    Режим общего битрейта : Переменный
    Общий поток : 1017 Кбит/сек
    Дата кодирования : UTC 2017-10-18 08: 32: 27
    Дата пометки : UTC 2017-10-18 08: 32: 27
    Видео
    Идентификатор : 1
    Формат : AVC
    Формат/Информация : Advanced Video Codec
    Профиль формата : High@L3.1
    Настройки формата : CABAC/1 Ref Frames
    Параметр CABAC формата : Да
    Параметр RefFrames формата : 1 кадр
    Идентификатор кодека : avc1
    Идентификатор кодека/Информация : Advanced Video Coding
    Продолжительность : 1 ч. 46 м.
    Битрейт : 822 Кбит/сек
    Максимальный битрейт : 4043 Кбит/сек
    Ширина : 1280 пикселей
    Высота : 536 пикселей
    Соотношение сторон : 2, 40: 1
    Режим частоты кадров : Постоянный
    Частота кадров : 24, 000 кадра/сек
    Цветовое пространство : YUV
    Субдискретизация насыщенности : 4: 2: 0
    Битовая глубина : 8 бит
    Тип развёртки : Прогрессивная
    Бит/(Пиксели*Кадры) : 0.050
    Размер потока : 626 Мбайт (81%)
    Дата пометки : UTC 2017-10-18 08: 38: 04
    Цветовой диапазон : Limited
    Основные цвета : BT.709
    Характеристики трансфера : BT.709
    Коэффициенты матрицы : BT.709
    Аудио
    Идентификатор : 2
    Формат : AAC
    Формат/Информация : Advanced Audio Codec
    Профиль формата : LC
    Идентификатор кодека : mp4a-40-2
    Продолжительность : 1 ч. 46 м.
    Вид битрейта : Переменный
    Битрейт : 192 Кбит/сек
    Максимальный битрейт : 203 Кбит/сек
    Каналы : 2 канала
    Расположение каналов : Front: L R
    Частота : 44, 1 КГц
    Частота кадров : 43, 066 кадра/сек (1024 SPF)
    Метод сжатия : С потерями
    Размер потока : 146 Мбайт (19%)
    Дата кодирования : UTC 2017-10-18 06: 10: 29
    Дата пометки : UTC 2017-10-18 08: 38: 04
    Скриншоты:


    Все одноименные релизы в Клубе
    Время раздачи: с 11: 00 до 23: 00 (до появления первых 3-5 скачавших)

    Невидимый гость/Contratiempo (2016) HDRip [H.264] [MP4|1280x536] [AD]
    загрузка...
    Рейтинг →
     (голосов: 1, оценка 4/5, голосовать можно 1 раз )

    Другие торренты по теме:

  • Невидимый гость / Contratiempo (2016) WEB-DLRip
  • Невидимый гость / Contratiempo (2016) HDRip
  • Невидимый гость / Contratiempo (2016) BDRip [H.264 / 1080p] [MVO] [AD]
  • Невидимый гость / Contratiempo (2016) WEB-DLRip [H.264] [MP4|640x354@852x354] [MVO][AD]
  • Невидимый гость / Contratiempo (2016) BDRemux [H.264 / 1080p] [VO]
  • Невидимый гость / Contratiempo (2016) BDRip [H.264 / 720p] [VO]
  • Невидимый гость / Contratiempo (2016) BDRip [H.264 / 1080p] [VO]
  • Невидимый гость / Contratiempo (2016) BDRip [H,264 / 720p-LQ] [VO]


    • Комментарии (0):

      Информация

      Информация

        Посетители, находящиеся в группе Гости, не могут оставлять комментарии в данной новости.

        ↓ Меню




        ↓ Опрос

        Вы добавили сайт в закладки?
        Да
        Нет


        Top 10 за месяц (КПК и мобильные)