.
Авторизация | Регистрация
Хочешь лучшие торренты? Добавь свой email!
Добавить

Торрент скачать бесплатно

» » Невидимый гость / Contratiempo (2016) HDRip [H.264] [MP4|1920x804] [AD] торрент скачать бесплатно




    Невидимый гость / Contratiempo (2016) HDRip [H.264] [MP4|1920x804] [AD] торрент скачать бесплатно

    Опубликовал: Админ | Дата: 19-10-2017, 05:00 | Просмотров: 0

    Производство: Испания, Atresmedia Cine, Think Studio, Nostromo Pictures
    Жанр: Триллер, Криминал, Детектив
    Режиссер: Ориол Паоло
    Продюсер: Мерседес Гамеро, Адриан Герра, Микель Лехарса
    Актеры: Марио Касас, Хосе Коронадо, Барбара Ленни, Ана Вахенер

    Описание

    В один прекрасный день молодой бизнесмен Эдриан Дориа просыпается в закрытом изнутри номере отеля рядом с бездыханным телом своей любовницы. Его обвиняют в убийстве, но он, не считая себя виновным, решает воспользоваться услугами Вирджинии Гудман, лучшего в стране специалиста по выходу из самых сложных ситуаций. В течение одной ночи консультант и её клиент будут работать, чтобы найти разумное опровержение обвинению, и, тем самым, высвободить его из тюрьмы.

    Дата мировой премьеры: 23 сентября 2016
    Продолжительность: 01: 46: 23
    Качество видео: HDRip
    Перевод: Многоголосый закадровый, профессиональный (Синема УС)
    Субтитры: отсутствуют
    Реклама: присутствуют аудио и видео вставки рекламы
    Видео: AVC/H.264, 1920x804, ~1055 Kbps
    Аудио: AAC, 2 ch, ~192 Kbps

    Общее
    Полное имя : E: DownloadThe Invisible Guest 2016 1080p.mp4
    Формат : MPEG-4
    Профиль формата : Base Media
    Идентификатор кодека : isom (isom/avc1/iso6)
    Размер файла : 951 Мбайт
    Продолжительность : 1 ч. 46 м.
    Режим общего битрейта : Переменный
    Общий поток : 1250 Кбит/сек
    Дата кодирования : UTC 2017-10-18 09: 07: 28
    Дата пометки : UTC 2017-10-18 09: 07: 28
    Видео
    Идентификатор : 1
    Формат : AVC
    Формат/Информация : Advanced Video Codec
    Профиль формата : High@L4
    Настройки формата : CABAC/2 Ref Frames
    Параметр CABAC формата : Да
    Параметр RefFrames формата : 2 кадра
    Идентификатор кодека : avc1
    Идентификатор кодека/Информация : Advanced Video Coding
    Продолжительность : 1 ч. 46 м.
    Битрейт : 1055 Кбит/сек
    Максимальный битрейт : 6323 Кбит/сек
    Ширина : 1920 пикселей
    Высота : 804 пикселя
    Соотношение сторон : 2, 40: 1
    Режим частоты кадров : Постоянный
    Частота кадров : 24, 000 кадра/сек
    Цветовое пространство : YUV
    Субдискретизация насыщенности : 4: 2: 0
    Битовая глубина : 8 бит
    Тип развёртки : Прогрессивная
    Бит/(Пиксели*Кадры) : 0.028
    Размер потока : 803 Мбайт (84%)
    Дата кодирования : UTC 2017-10-18 09: 07: 28
    Дата пометки : UTC 2017-10-18 09: 12: 35
    Цветовой диапазон : Limited
    Основные цвета : BT.709
    Характеристики трансфера : BT.709
    Коэффициенты матрицы : BT.709
    Аудио
    Идентификатор : 2
    Формат : AAC
    Формат/Информация : Advanced Audio Codec
    Профиль формата : LC
    Идентификатор кодека : mp4a-40-2
    Продолжительность : 1 ч. 46 м.
    Вид битрейта : Переменный
    Битрейт : 192 Кбит/сек
    Максимальный битрейт : 203 Кбит/сек
    Каналы : 2 канала
    Расположение каналов : Front: L R
    Частота : 44, 1 КГц
    Частота кадров : 43, 066 кадра/сек (1024 SPF)
    Метод сжатия : С потерями
    Размер потока : 146 Мбайт (15%)
    Язык : Russian
    Дата кодирования : UTC 2017-10-18 09: 12: 09
    Дата пометки : UTC 2017-10-18 09: 12: 35
    Скриншоты:


    Все одноименные релизы в Клубе
    Время раздачи: с 11: 00 до 23: 00 (до появления первых 3-5 скачавших)

    Невидимый гость/Contratiempo (2016) HDRip [H.264] [MP4|1920x804] [AD]
    загрузка...
    Рейтинг →
     (голосов: 1, оценка 3/5, голосовать можно 1 раз )

    Другие торренты по теме:

  • Невидимый гость / Contratiempo (2016) WEB-DLRip
  • Невидимый гость / Contratiempo (2016) HDRip
  • Невидимый гость / Contratiempo (2016) BDRip [H.264 / 1080p] [MVO] [AD]
  • Невидимый гость / Contratiempo (2016) WEB-DLRip [H.264] [MP4|640x354@852x354] [MVO][AD]
  • Невидимый гость / Contratiempo (2016) BDRemux [H.264 / 1080p] [VO]
  • Невидимый гость / Contratiempo (2016) BDRip [H.264 / 720p] [VO]
  • Невидимый гость / Contratiempo (2016) BDRip [H.264 / 1080p] [VO]
  • Невидимый гость / Contratiempo (2016) BDRip [H,264 / 720p-LQ] [VO]


    • Комментарии (0):

      Информация

      Информация

        Посетители, находящиеся в группе Гости, не могут оставлять комментарии в данной новости.

        ↓ Меню




        ↓ Опрос

        Вы добавили сайт в закладки?
        Да
        Нет


        Top 10 за месяц (КПК и мобильные)