.
Авторизация | Регистрация
Хочешь лучшие торренты? Добавь свой email!
Добавить

Торрент скачать бесплатно

» » По соображениям совести / Hacksaw Ridge (2016) HDRip [H.264] [MP4|1280x534] торрент скачать бесплатно




    По соображениям совести / Hacksaw Ridge (2016) HDRip [H.264] [MP4|1280x534] торрент скачать бесплатно

    Опубликовал: Админ | Дата: 18-10-2017, 05:00 | Просмотров: 0

    Производство: Австралия, США/AI-Film, Argent Pictures, Bliss Media
    Жанр: Драма, Военный
    Режиссер: Мэл Гибсон
    Продюсер: Майкл Бэссик, Лоуренс Бендер, Терри Бенедикт
    Актеры: Эндрю Гарфилд, Ричард Пирос, Джейкоб Уорнер, Мило Гибсон, Дарси БрайсРоман Геррьеро, Джеймс Лагтон, Касия Стелмах, Хьюго Уивинг, Рэйчел Гриффитс

    Описание

    Медик Американской армии времён Второй Мировой войны Дезмонд Досс, который служил во время битвы за Окинаву, отказывается убивать людей и становится первым идейным уклонистом в американской истории, удостоенным Медали Почёта.

    Возраст: 18+ (зрителям, достигшим 18 лет. запрещено для детей)
    Рейтинг MPAA: R (лицам до 17 лет обязательно присутствие взрослого)
    Дата мировой премьеры: 4 сентября 2016
    Дата российской премьеры: 17 ноября 2016, WDSSPR
    Продолжительность: 02: 19: 19
    Качество видео: HDRip
    Перевод: Дублированный (iTunes)
    Субтитры: Русские (форсированные, полные), Английские (полные, SDH)
    Видео: AVC/H.264, 1280x534, ~1215 Kbps
    Аудио: AAC, 2 ch, ~192 Kbps

    Общее
    Полное имя : E: DownloadHacksaw Ridge 2016 720p.mp4
    Формат : MPEG-4
    Профиль формата : Base Media
    Идентификатор кодека : isom (isom)
    Размер файла : 1, 37 Гбайт
    Продолжительность : 2 ч. 19 м.
    Режим общего битрейта : Переменный
    Общий поток : 1409 Кбит/сек
    Дата кодирования : UTC 2017-10-15 11: 22: 21
    Дата пометки : UTC 2017-10-15 11: 22: 21
    Видео
    Идентификатор : 1
    Формат : AVC
    Формат/Информация : Advanced Video Codec
    Профиль формата : High@L3.1
    Настройки формата : CABAC/1 Ref Frames
    Параметр CABAC формата : Да
    Параметр RefFrames формата : 1 кадр
    Параметр GOP формата : M=1, N=60
    Идентификатор кодека : avc1
    Идентификатор кодека/Информация : Advanced Video Coding
    Продолжительность : 2 ч. 19 м.
    Битрейт : 1215 Кбит/сек
    Максимальный битрейт : 6422 Кбит/сек
    Ширина : 1280 пикселей
    Высота : 534 пикселя
    Соотношение сторон : 2, 40: 1
    Режим частоты кадров : Постоянный
    Частота кадров : 23, 976 (24000/1001) кадра/сек
    Цветовое пространство : YUV
    Субдискретизация насыщенности : 4: 2: 0
    Битовая глубина : 8 бит
    Тип развёртки : Прогрессивная
    Бит/(Пиксели*Кадры) : 0.074
    Размер потока : 1, 18 Гбайт (86%)
    Дата пометки : UTC 2017-10-15 11: 30: 26
    Цветовой диапазон : Limited
    Основные цвета : BT.709
    Характеристики трансфера : BT.709
    Коэффициенты матрицы : BT.709
    Аудио
    Идентификатор : 2
    Формат : AAC
    Формат/Информация : Advanced Audio Codec
    Профиль формата : LC
    Идентификатор кодека : mp4a-40-2
    Продолжительность : 2 ч. 19 м.
    Вид битрейта : Переменный
    Битрейт : 192 Кбит/сек
    Максимальный битрейт : 202 Кбит/сек
    Каналы : 2 канала
    Расположение каналов : Front: L R
    Частота : 44, 1 КГц
    Частота кадров : 43, 066 кадра/сек (1024 SPF)
    Метод сжатия : С потерями
    Размер потока : 191 Мбайт (14%)
    Язык : Russian
    Дата кодирования : UTC 2017-10-15 07: 19: 38
    Дата пометки : UTC 2017-10-15 11: 30: 26
    Текст #1
    Идентификатор : 3
    Формат : Timed Text
    Идентификатор кодека : tx3g
    Продолжительность : 2 ч. 13 м.
    Вид битрейта : Переменный
    Битрейт : 3 бит/сек
    Размер потока : 2, 89 Кбайт (0%)
    Заголовок : Forced
    Язык : Russian
    Forced : Нет
    Дата кодирования : UTC 2017-10-15 11: 30: 26
    Дата пометки : UTC 2017-10-15 11: 30: 26
    Текст #2
    Идентификатор : 4
    Формат : Timed Text
    Идентификатор кодека : tx3g
    Продолжительность : 2 ч. 11 м.
    Вид битрейта : Переменный
    Битрейт : 81 бит/сек
    Размер потока : 77, 5 Кбайт (0%)
    Заголовок : Full
    Язык : Russian
    Forced : Нет
    Дата кодирования : UTC 2017-10-15 11: 30: 26
    Дата пометки : UTC 2017-10-15 11: 30: 26
    Текст #3
    Идентификатор : 5
    Формат : Timed Text
    Идентификатор кодека : tx3g
    Продолжительность : 2 ч. 10 м.
    Вид битрейта : Переменный
    Битрейт : 54 бит/сек
    Размер потока : 51, 3 Кбайт (0%)
    Заголовок : Full
    Язык : English
    Forced : Нет
    Дата кодирования : UTC 2017-10-15 11: 30: 26
    Дата пометки : UTC 2017-10-15 11: 30: 26
    Текст #4
    Идентификатор : 6
    Формат : Timed Text
    Идентификатор кодека : tx3g
    Продолжительность : 2 ч. 10 м.
    Вид битрейта : Переменный
    Битрейт : 62 бит/сек
    Размер потока : 59, 5 Кбайт (0%)
    Заголовок : SDH
    Язык : English
    Forced : Нет
    Дата кодирования : UTC 2017-10-15 11: 30: 26
    Дата пометки : UTC 2017-10-15 11: 30: 26
    Скриншоты:


    Все одноименные релизы в Клубе
    Время раздачи: с 11: 00 до 23: 00 (до появления первых 3-5 скачавших)

    По соображениям совести/Hacksaw Ridge (2016) HDRip [H.264] [MP4|1280x534]
    загрузка...
    Рейтинг →
     (голосов: 1, оценка 3/5, голосовать можно 1 раз )

    Другие торренты по теме:

  • По соображениям совести / Hacksaw Ridge (2016) CamRip
  • По соображениям совести / Hacksaw Ridge (2016) DVDScr [звук с TS]
  • По соображениям совести / Hacksaw Ridge (2016) DVDScr [Line]
  • По соображениям совести / Hacksaw Ridge (2016) WEB-DL [H.264 / 1080p-LQ] [Line]
  • По соображениям совести / Hacksaw Ridge (2016) WEB-DL [H.264 / 1080p-LQ]
  • По соображениям совести / Hacksaw Ridge (2016) WEB-DLRip [Line]
  • По соображениям совести / Hacksaw Ridge (2016) BDRip [H.264 / 1080р] [Line]
  • По соображениям совести / Hacksaw Ridge (2016) BDRip [H.264 / 1080р]


    • Комментарии (0):

      Информация

      Информация

        Посетители, находящиеся в группе Гости, не могут оставлять комментарии в данной новости.

        ↓ Меню




        ↓ Опрос

        Вы добавили сайт в закладки?
        Да
        Нет


        Top 10 за месяц (КПК и мобильные)