.
Авторизация | Регистрация
Хочешь лучшие торренты? Добавь свой email!
Добавить

Торрент скачать бесплатно

» » Планета обезьян: Война / War for the Planet of the Apes (2017) HDRip [H.264] [MP4|1280x534] торрент скачать бесплатно




    Планета обезьян: Война / War for the Planet of the Apes (2017) HDRip [H.264] [MP4|1280x534] торрент скачать бесплатно

    Опубликовал: Админ | Дата: 18-10-2017, 05:00 | Просмотров: 0

    Производство: США, Канада, Новая Зеландия, Chernin Entertainment, River Road Entertainment, TSG Entertainment
    Жанр: Фантастика, Боевик, Триллер, Драма
    Режиссер: Мэтт Ривз
    Продюсер: Марк Бомбэк, Питер Чернин, Дилан Кларк
    Актеры: Энди Серкис, Вуди Харрельсон, Стив Зан, Карин Коновал, Амайя Миллер, Терри Нотари, Тай Олссон, Майкл Адамуэйт, Тоби Кеббелл, Гэбриел Чаварриа

    Описание

    Армию генетически модифицированных обезьян ожидает новый вызов: они вынуждены вступить в смертельную схватку с армией людей под руководством безжалостного полковника. После невообразимых потерь среди своих воинов вождь обезьян Цезарь начинает личную борьбу с темными инстинктами и собирается отомстить за весь свой вид. В конце концов он и полковник должны будут сойтись в эпической битве, которая решит, кто теперь будет править на Земле — люди или обезьяны.

    Возраст: 16+ (зрителям, достигшим 16 лет)
    Рейтинг MPAA: PG-13 (детям до 13 лет просмотр нежелателен)
    Дата мировой премьеры: 11 июля 2017
    Дата российской премьеры: 13 июля 2017, Двадцатый Век Фокс СНГ
    Продолжительность: 02: 20: 09
    Качество видео: HDRip
    Перевод: Дублированный (iTunes)
    Субтитры: Русские (форсированные, полные), Английские (форсированные, полные)
    Видео: AVC/H.264, 1280x534, ~1119 Kbps
    Аудио: AAC, 2 ch, ~192 Kbps

    Общее
    Полное имя : E: DownloadWAR FTPOT APES 720p.mp4
    Формат : MPEG-4
    Профиль формата : Base Media
    Идентификатор кодека : isom (isom)
    Размер файла : 1, 29 Гбайт
    Продолжительность : 2 ч. 20 м.
    Режим общего битрейта : Переменный
    Общий поток : 1313 Кбит/сек
    Дата кодирования : UTC 2017-10-16 12: 52: 24
    Дата пометки : UTC 2017-10-16 12: 52: 24
    Видео
    Идентификатор : 1
    Формат : AVC
    Формат/Информация : Advanced Video Codec
    Профиль формата : High@L3.1
    Настройки формата : CABAC/1 Ref Frames
    Параметр CABAC формата : Да
    Параметр RefFrames формата : 1 кадр
    Идентификатор кодека : avc1
    Идентификатор кодека/Информация : Advanced Video Coding
    Продолжительность : 2 ч. 20 м.
    Битрейт : 1119 Кбит/сек
    Максимальный битрейт : 6718 Кбит/сек
    Ширина : 1280 пикселей
    Высота : 534 пикселя
    Соотношение сторон : 2, 40: 1
    Режим частоты кадров : Постоянный
    Частота кадров : 23, 976 (24000/1001) кадра/сек
    Цветовое пространство : YUV
    Субдискретизация насыщенности : 4: 2: 0
    Битовая глубина : 8 бит
    Тип развёртки : Прогрессивная
    Бит/(Пиксели*Кадры) : 0.068
    Размер потока : 1, 10 Гбайт (85%)
    Дата пометки : UTC 2017-10-16 12: 59: 01
    Цветовой диапазон : Limited
    Основные цвета : BT.709
    Характеристики трансфера : BT.709
    Коэффициенты матрицы : BT.709
    Аудио
    Идентификатор : 2
    Формат : AAC
    Формат/Информация : Advanced Audio Codec
    Профиль формата : LC
    Идентификатор кодека : mp4a-40-2
    Продолжительность : 2 ч. 20 м.
    Вид битрейта : Переменный
    Битрейт : 192 Кбит/сек
    Максимальный битрейт : 202 Кбит/сек
    Каналы : 2 канала
    Расположение каналов : Front: L R
    Частота : 44, 1 КГц
    Частота кадров : 43, 066 кадра/сек (1024 SPF)
    Метод сжатия : С потерями
    Размер потока : 192 Мбайт (15%)
    Язык : Russian
    Дата кодирования : UTC 2017-10-16 09: 44: 53
    Дата пометки : UTC 2017-10-16 12: 59: 01
    Текст #1
    Идентификатор : 3
    Формат : Timed Text
    Идентификатор кодека : tx3g
    Продолжительность : 2 ч. 20 м.
    Вид битрейта : Переменный
    Битрейт : 10 бит/сек
    Размер потока : 9, 80 Кбайт (0%)
    Заголовок : Forced
    Язык : Russian
    Forced : Нет
    Дата кодирования : UTC 2017-10-16 12: 59: 01
    Дата пометки : UTC 2017-10-16 12: 59: 01
    Текст #2
    Идентификатор : 4
    Формат : Timed Text
    Идентификатор кодека : tx3g
    Продолжительность : 2 ч. 20 м.
    Вид битрейта : Переменный
    Битрейт : 31 бит/сек
    Размер потока : 31, 7 Кбайт (0%)
    Заголовок : Full
    Язык : Russian
    Forced : Нет
    Дата кодирования : UTC 2017-10-16 12: 59: 01
    Дата пометки : UTC 2017-10-16 12: 59: 01
    Текст #3
    Идентификатор : 5
    Формат : Timed Text
    Идентификатор кодека : tx3g
    Продолжительность : 1 ч. 51 м.
    Вид битрейта : Переменный
    Битрейт : 6 бит/сек
    Размер потока : 4, 97 Кбайт (0%)
    Заголовок : Forced
    Язык : English
    Forced : Нет
    Дата кодирования : UTC 2017-10-16 12: 59: 01
    Дата пометки : UTC 2017-10-16 12: 59: 01
    Текст #4
    Идентификатор : 6
    Формат : Timed Text
    Идентификатор кодека : tx3g
    Продолжительность : 2 ч. 11 м.
    Вид битрейта : Переменный
    Битрейт : 19 бит/сек
    Размер потока : 18, 4 Кбайт (0%)
    Заголовок : Full
    Язык : English
    Forced : Нет
    Дата кодирования : UTC 2017-10-16 12: 59: 01
    Дата пометки : UTC 2017-10-16 12: 59: 01
    Скриншоты:


    Все одноименные релизы в Клубе
    Время раздачи: с 11: 00 до 23: 00 (до появления первых 3-5 скачавших)

    Планета обезьян: Война/War for the Planet of the Apes (2017) HDRip [H.264] [MP4|1280x534]
    загрузка...
    Рейтинг →
     (голосов: 1, оценка 5/5, голосовать можно 1 раз )

    Другие торренты по теме:

  • Планета обезьян. Куда исчезают умные дети (Планета мавп. Куди зникають розумні діти) (2014) [MP4|1280x720] <HDRip H.264> скачать через торрент бесплатно
  • Планета обезьян: Революция / Dawn of the Planet of the Apes (2014) TS
  • Планета обезьян: Революция / Dawn of the Planet of the Apes (2014) TS
  • Планета обезьян: Революция / Dawn of the Planet of the Apes (2014) TS
  • Планета обезьян: Революция / Dawn of the Planet of the Apes (2014) TS [H.264 / 720p-LQ]
  • Планета обезьян: Революция / Dawn of the Planet of the Apes (2014) WEB-DLRip [звук с TS]
  • Планета обезьян: Революция / Dawn of the Planet of the Apes (2014) WEB-DLRip [H.264] [Line] скачать через торрент бесплатно
  • Планета обезьян: Революция / Dawn of the Planet of the Apes (2014) WEB-DL [H.264 / 720p-LQ] [Line] скачать через торрент бесплатно


    • Комментарии (0):

      Информация

      Информация

        Посетители, находящиеся в группе Гости, не могут оставлять комментарии в данной новости.

        ↓ Меню




        ↓ Опрос

        Вы добавили сайт в закладки?
        Да
        Нет


        Top 10 за месяц (КПК и мобильные)