.
Авторизация | Регистрация
Хочешь лучшие торренты? Добавь свой email!
Добавить

Торрент скачать бесплатно

» » Выстрел в пустоту / Shot Caller (2017) HDRip [H.264] [MP4|1920x800] торрент скачать бесплатно




    Выстрел в пустоту / Shot Caller (2017) HDRip [H.264] [MP4|1920x800] торрент скачать бесплатно

    Опубликовал: Админ | Дата: 18-10-2017, 05:00 | Просмотров: 0

    Производство: США/Bold Films, DirecTV, Participant Media
    Жанр: Триллер, Драма, Криминал
    Режиссер: Рик Роман Во
    Продюсер: Джонатан Кинг, Мишель Литвак, Гари Майкл Уолтерс
    Актеры: Николай Костер-Вальдау, Джон Бернтал, Лэйк Белл, Омари Хардвик, Джеффри Донован, Майкл Лэндис, Джесси Шрэм, Эмори Коэн, Бенджамин Брэтт, Холт МакКэллани

    Описание

    Роковая случайность, смертельная трагедия, и вся его жизнь летит под откос… Оказавшись за решеткой, он должен научиться жить по новым законам. Ты должен стать борцом, авторитетом или окажешься жертвой. Какую цену придется заплатить, чтобы выжить в этом аду, из которого нет дороги назад?..

    Возраст: 18+ (зрителям, достигшим 18 лет. запрещено для детей)
    Рейтинг MPAA R (лицам до 17 лет обязательно присутствие взрослого)
    Дата мировой премьеры: 17 июня 2017
    Дата российской премьеры: 13 июля 2017, Парадиз
    Продолжительность: 02: 00: 41
    Качество видео: HDRip
    Перевод: Дублированный (iTunes)
    Субтитры: отсутствуют
    Видео: AVC/H.264, 1920x800, ~1572 Kbps
    Аудио: AAC, 2 ch, ~192 Kbps

    Общее
    Полное имя : E: DownloadShot Caller 2017 1080p.mp4
    Формат : MPEG-4
    Профиль формата : Base Media
    Идентификатор кодека : isom (isom/avc1/iso6)
    Размер файла : 1, 49 Гбайт
    Продолжительность : 2 ч. 0 м.
    Режим общего битрейта : Переменный
    Общий поток : 1767 Кбит/сек
    Дата кодирования : UTC 2017-10-17 10: 17: 55
    Дата пометки : UTC 2017-10-17 10: 17: 55
    Видео
    Идентификатор : 1
    Формат : AVC
    Формат/Информация : Advanced Video Codec
    Профиль формата : High@L4
    Настройки формата : CABAC/2 Ref Frames
    Параметр CABAC формата : Да
    Параметр RefFrames формата : 2 кадра
    Идентификатор кодека : avc1
    Идентификатор кодека/Информация : Advanced Video Coding
    Продолжительность : 2 ч. 0 м.
    Битрейт : 1572 Кбит/сек
    Максимальный битрейт : 6239 Кбит/сек
    Ширина : 1920 пикселей
    Высота : 800 пикселей
    Соотношение сторон : 2, 40: 1
    Режим частоты кадров : Постоянный
    Частота кадров : 23, 976 (24000/1001) кадра/сек
    Цветовое пространство : YUV
    Субдискретизация насыщенности : 4: 2: 0
    Битовая глубина : 8 бит
    Тип развёртки : Прогрессивная
    Бит/(Пиксели*Кадры) : 0.043
    Размер потока : 1, 33 Гбайт (89%)
    Дата кодирования : UTC 2017-10-17 10: 17: 55
    Дата пометки : UTC 2017-10-17 10: 21: 15
    Цветовой диапазон : Limited
    Основные цвета : BT.709
    Характеристики трансфера : BT.709
    Коэффициенты матрицы : BT.709
    Аудио
    Идентификатор : 2
    Формат : AAC
    Формат/Информация : Advanced Audio Codec
    Профиль формата : LC
    Идентификатор кодека : mp4a-40-2
    Продолжительность : 2 ч. 0 м.
    Вид битрейта : Переменный
    Битрейт : 192 Кбит/сек
    Максимальный битрейт : 201 Кбит/сек
    Каналы : 2 канала
    Расположение каналов : Front: L R
    Частота : 44, 1 КГц
    Частота кадров : 43, 066 кадра/сек (1024 SPF)
    Метод сжатия : С потерями
    Размер потока : 166 Мбайт (11%)
    Язык : Russian
    Дата кодирования : UTC 2017-10-17 10: 21: 03
    Дата пометки : UTC 2017-10-17 10: 21: 15
    Скриншоты:


    Все одноименные релизы в Клубе
    Время раздачи: с 11: 00 до 23: 00 (до появления первых 3-5 скачавших)

    Выстрел в пустоту/Shot Caller (2017) HDRip [H.264] [MP4|1920x800]
    загрузка...
    Рейтинг →
     (голосов: 1, оценка 5/5, голосовать можно 1 раз )

    Другие торренты по теме:

  • Выстрел в пустоту / Shot Caller (2017) WEB-DL [H.264 / 1080p-LQ] [EN / EN Sub]
  • Выстрел в пустоту / Shot Caller (2017) WEB-DLRip [H.264 / 720p-LQ] [MVO] [AD]
  • Выстрел в пустоту / Shot Caller (2017) WEB-DLRip [H.264 / 1080p-LQ] [MVO] [AD]
  • Выстрел в пустоту / Shot Caller (2017) WEB-DLRip [MVO] [AD]
  • Выстрел в пустоту / Shot Caller (2017) BDRemux [H.264 / 1080p] [EN / EN Sub]
  • Выстрел в пустоту / Shot Caller (2017) BDRip [H.264 / 1080p-LQ] [MVO] [AD]
  • Выстрел в пустоту / Shot Caller (2017) BDRip [H.264 / 720p-LQ] [MVO] [AD]
  • Выстрел в пустоту / Shot Caller (2017) BDRip [H.264 / 1080p] [MVO, PR]


    • Комментарии (0):

      Информация

      Информация

        Посетители, находящиеся в группе Гости, не могут оставлять комментарии в данной новости.

        ↓ Меню




        ↓ Опрос

        Вы добавили сайт в закладки?
        Да
        Нет


        Top 10 за месяц (КПК и мобильные)