.
Авторизация | Регистрация
Хочешь лучшие торренты? Добавь свой email!
Добавить

Торрент скачать бесплатно

» » Va-банк / Runner Runner (2013) HDRip [H.264] [MP4|1920x800] торрент скачать бесплатно




    Va-банк / Runner Runner (2013) HDRip [H.264] [MP4|1920x800] торрент скачать бесплатно

    Опубликовал: Админ | Дата: 12-10-2017, 05:00 | Просмотров: 1

    Производство: США/Appian Way, Double Feature Films
    Жанр: Триллер, Драма, Криминал
    Режиссер: Брэд Фурман
    Продюсер: Леонардо ДиКаприо, Эрик Холмберг, Дженнифер Дэвиссон
    Актеры: Джастин Тимберлэйк, Бен Аффлек, Джемма Артертон, Энтони Маки, Майкл Эспер, Оливер Купер, Кристиан Джордж, Юл Васкез, Джон Хёрд, Джеймс Молина

    Описание

    Чтобы оплачивать учёбу в колледже, Ричи погружается в мир азартных игр онлайн. Когда удача изменяет ему, он отправляется на Коста-Рику, чтобы помериться силами с настоящим асом игрового бизнеса. Тот видит в Ричи родственную душу и вводит его в свою игру. Но когда степень опасности возрастает, а ставки достигают невероятных высот, Ричи вдруг отчётливо понимает, что его новый босс вот-вот совершит непоправимое, и пытается поменяться с ним ролями.

    Возраст: 16+ (зрителям, достигшим 16 лет)
    Рейтинг MPAA: R (лицам до 17 лет обязательно присутствие взрослого)
    Дата мировой премьеры: 18 сентября 2013
    Дата российской премьеры: 26 сентября 2013, Двадцатый Век Фокс СНГ
    Дата выхода DVD/Blu-ray релиза: 6 февраля 2014, Двадцатый Век Фокс СНГ
    Продолжительность: 01: 31: 31
    Качество видео: HDRip
    Перевод: Дублированный (Лицензия BD CEE)
    Субтитры: Русские (форсированные, полные), Английские (форсированные, полные, SDH)
    Видео: AVC/H.264, 1920x800, ~2442 Kbps
    Аудио: AAC, 2 ch, ~192 Kbps

    Общее
    Полное имя : E: DownloadRunner Runner 2013 1080p.mp4
    Формат : MPEG-4
    Профиль формата : Base Media
    Идентификатор кодека : isom (isom/avc1/iso6)
    Размер файла : 1, 69 Гбайт
    Продолжительность : 1 ч. 31 м.
    Режим общего битрейта : Переменный
    Общий поток : 2638 Кбит/сек
    Дата кодирования : UTC 2017-10-10 14: 55: 41
    Дата пометки : UTC 2017-10-10 14: 55: 41
    Программа кодирования : My MP4Box GUI 0.6.0.6
    Видео
    Идентификатор : 1
    Формат : AVC
    Формат/Информация : Advanced Video Codec
    Профиль формата : High@L4
    Настройки формата : CABAC/2 Ref Frames
    Параметр CABAC формата : Да
    Параметр RefFrames формата : 2 кадра
    Идентификатор кодека : avc1
    Идентификатор кодека/Информация : Advanced Video Coding
    Продолжительность : 1 ч. 31 м.
    Битрейт : 2442 Кбит/сек
    Максимальный битрейт : 7501 Кбит/сек
    Ширина : 1920 пикселей
    Высота : 800 пикселей
    Соотношение сторон : 2, 40: 1
    Режим частоты кадров : Постоянный
    Частота кадров : 23, 976 (24000/1001) кадра/сек
    Цветовое пространство : YUV
    Субдискретизация насыщенности : 4: 2: 0
    Битовая глубина : 8 бит
    Тип развёртки : Прогрессивная
    Бит/(Пиксели*Кадры) : 0.066
    Размер потока : 1, 56 Гбайт (93%)
    Дата кодирования : UTC 2017-10-10 14: 55: 41
    Дата пометки : UTC 2017-10-10 14: 57: 37
    Цветовой диапазон : Limited
    Основные цвета : BT.709
    Характеристики трансфера : BT.709
    Коэффициенты матрицы : BT.709
    Аудио
    Идентификатор : 2
    Формат : AAC
    Формат/Информация : Advanced Audio Codec
    Профиль формата : LC
    Идентификатор кодека : mp4a-40-2
    Продолжительность : 1 ч. 31 м.
    Вид битрейта : Переменный
    Битрейт : 192 Кбит/сек
    Максимальный битрейт : 202 Кбит/сек
    Каналы : 2 канала
    Расположение каналов : Front: L R
    Частота : 44, 1 КГц
    Частота кадров : 43, 066 кадра/сек (1024 SPF)
    Метод сжатия : С потерями
    Размер потока : 126 Мбайт (7%)
    Язык : Russian
    Дата кодирования : UTC 2017-10-10 14: 57: 19
    Дата пометки : UTC 2017-10-10 14: 57: 37
    Текст #1
    Идентификатор : 3
    Формат : Timed Text
    Идентификатор кодека : tx3g
    Продолжительность : 1 ч. 17 м.
    Вид битрейта : Переменный
    Битрейт : 3 бит/сек
    Размер потока : 1, 52 Кбайт (0%)
    Язык : Russian
    Forced : Нет
    Дата кодирования : UTC 2017-10-10 14: 57: 37
    Дата пометки : UTC 2017-10-10 14: 57: 37
    Текст #2
    Идентификатор : 4
    Формат : Timed Text
    Идентификатор кодека : tx3g
    Продолжительность : 1 ч. 25 м.
    Вид битрейта : Переменный
    Битрейт : 131 бит/сек
    Размер потока : 82, 2 Кбайт (0%)
    Язык : Russian
    Forced : Нет
    Дата кодирования : UTC 2017-10-10 14: 57: 37
    Дата пометки : UTC 2017-10-10 14: 57: 37
    Текст #3
    Идентификатор : 5
    Формат : Timed Text
    Идентификатор кодека : tx3g
    Продолжительность : 1 ч. 17 м.
    Вид битрейта : Переменный
    Битрейт : 2 бит/сек
    Размер потока : 881 байт (0%)
    Язык : English
    Forced : Нет
    Дата кодирования : UTC 2017-10-10 14: 57: 37
    Дата пометки : UTC 2017-10-10 14: 57: 37
    Текст #4
    Идентификатор : 6
    Формат : Timed Text
    Идентификатор кодека : tx3g
    Продолжительность : 1 ч. 25 м.
    Вид битрейта : Переменный
    Битрейт : 94 бит/сек
    Размер потока : 59, 1 Кбайт (0%)
    Язык : English
    Forced : Нет
    Дата кодирования : UTC 2017-10-10 14: 57: 37
    Дата пометки : UTC 2017-10-10 14: 57: 37
    Текст #5
    Идентификатор : 7
    Формат : Timed Text
    Идентификатор кодека : tx3g
    Продолжительность : 1 ч. 25 м.
    Вид битрейта : Переменный
    Битрейт : 99 бит/сек
    Размер потока : 62, 3 Кбайт (0%)
    Язык : English
    Forced : Нет
    Дата кодирования : UTC 2017-10-10 14: 57: 37
    Дата пометки : UTC 2017-10-10 14: 57: 37
    Скриншоты:


    Все одноименные релизы в Клубе
    Время раздачи: с 11: 00 до 23: 00 (до появления первых 3-5 скачавших)

    Va-банк/Runner Runner (2013) HDRip [H.264] [MP4|1920x800]
    загрузка...
    Рейтинг →
     (голосов: 1, оценка 4/5, голосовать можно 1 раз )

    Другие торренты по теме:

  • Va-банк / Runner Runner (2013) HDRip [AVO] скачать через торрент бесплатно
  • Va-банк / Runner Runner (2013) HDRip [H.264] [MP4|1280x534]


    • Комментарии (0):

      Информация

      Информация

        Посетители, находящиеся в группе Гости, не могут оставлять комментарии в данной новости.

        ↓ Меню




        ↓ Опрос

        Вы добавили сайт в закладки?
        Да
        Нет


        Top 10 за месяц (КПК и мобильные)