.
Авторизация | Регистрация
Хочешь лучшие торренты? Добавь свой email!
Добавить

Торрент скачать бесплатно

» » Снайпер: Идеальное убийство / Sniper: Ultimate Kill (2017) HDRip [H.264] [MP4|1920x800] торрент скачать бесплатно




    Снайпер: Идеальное убийство / Sniper: Ultimate Kill (2017) HDRip [H.264] [MP4|1920x800] торрент скачать бесплатно

    Опубликовал: Админ | Дата: 9-10-2017, 05:00 | Просмотров: 0

    Производство: США, Destination Films, Mandalay Pictures
    Жанр: Боевик, Триллер, Драма
    Режиссер: Клаудио Фах
    Продюсер: Дэвид Зелон, Камило Буендия, Андрес Кальдерон
    Актеры: Билли Зейн, Том Беренджер, Денай Гарсиа, Джо Ландо, Хуан Себастьян Калеро, Чад Коллинз, Хуан Пабло Гамбоа, Фелипе Калеро, Лучо Веласко

    Описание

    Глава колумбийского наркокартеля объединят в своих руках все каналы доставки наркотиков в США. Его врагов уничтожает суперснайпер по кличке Дьявол. Агентство по борьбе с наркотиками отправляет на борьбу с ними спецагента под прикрытием, опытного снайпера из морской разведки.

    Рейтинг MPAA: R (лицам до 17 лет обязательно присутствие взрослого)
    Дата мировой премьеры: 3 октября 2017
    Продолжительность: 01: 33: 18
    Качество видео: HDRip
    Перевод: Многоголосый закадровый, профессиональный (Лицензия BD EUR)
    Субтитры: отсутствуют
    Видео: AVC/H.264, 1920x800, ~2143 Kbps
    Аудио: AAC, 2 ch, 126 Kbps

    Общее
    Полное имя : E: \Download\Snajper 2017 1080p.mp4
    Формат : MPEG-4
    Профиль формата : Base Media
    Идентификатор кодека : isom (isom/iso2/avc1/mp41)
    Размер файла : 1, 48 Гбайт
    Продолжительность : 1 ч. 33 м.
    Общий поток : 2275 Кбит/сек
    Программа кодирования : Lavf57.56.101
    Видео
    Идентификатор : 1
    Формат : AVC
    Формат/Информация : Advanced Video Codec
    Профиль формата : High@L4
    Настройки формата : CABAC/2 Ref Frames
    Параметр CABAC формата : Да
    Параметр RefFrames формата : 2 кадра
    Идентификатор кодека : avc1
    Идентификатор кодека/Информация : Advanced Video Coding
    Продолжительность : 1 ч. 33 м.
    Битрейт : 2143 Кбит/сек
    Ширина : 1920 пикселей
    Высота : 800 пикселей
    Соотношение сторон : 2, 40: 1
    Режим частоты кадров : Переменный
    Частота кадров : 23, 976 (24000/1001) кадра/сек
    Минимальная частота кадров : 23, 974 кадра/сек
    Максимальная частота кадров : 23, 981 кадра/сек
    Цветовое пространство : YUV
    Субдискретизация насыщенности : 4: 2: 0
    Битовая глубина : 8 бит
    Тип развёртки : Прогрессивная
    Бит/(Пиксели*Кадры) : 0.058
    Размер потока : 1, 40 Гбайт (94%)
    Цветовой диапазон : Limited
    Основные цвета : BT.709
    Характеристики трансфера : BT.709
    Коэффициенты матрицы : BT.709
    Аудио
    Идентификатор : 2
    Формат : AAC
    Формат/Информация : Advanced Audio Codec
    Профиль формата : LC
    Идентификатор кодека : mp4a-40-2
    Продолжительность : 1 ч. 33 м.
    Вид битрейта : Постоянный
    Битрейт : 126 Кбит/сек
    Каналы : 2 канала
    Расположение каналов : Front: L R
    Частота : 44, 1 КГц
    Частота кадров : 43, 066 кадра/сек (1024 SPF)
    Метод сжатия : С потерями
    Размер потока : 83, 8 Мбайт (6%)
    Default : Да
    AlternateGroup/String : 1
    Скриншоты:


    Все одноименные релизы в Клубе
    Время раздачи: с 11: 00 до 23: 00 (до появления первых 3-5 скачавших)

    Снайпер: Идеальное убийство/Sniper: Ultimate Kill (2017) HDRip [H.264] [MP4|1920x800]
    загрузка...
    Рейтинг →
     (голосов: 1, оценка 5/5, голосовать можно 1 раз )

    Другие торренты по теме:

  • Снайпер: Идеальное убийство / Sniper: Ultimate Kill (2017) WEB-DLRip [H.264 / 720p-LQ] [Line] [AD]
  • Снайпер: Идеальное убийство / Sniper: Ultimate Kill (2017) WEB-DLRip [H.264 / 1080p-LQ] [Line] [AD]
  • Снайпер: Идеальное убийство / Sniper: Ultimate Kill (2017) WEB-DLRip [Line] [AD]
  • Снайпер: Идеальное убийство / Sniper: Ultimate Kill (2017) BDRip [H.264 / 720p]
  • Снайпер: Идеальное убийство / Sniper: Ultimate Kill (2017) Blu-ray [H.264 / 1080p]
  • Снайпер: Идеальное убийство / Sniper: Ultimate Kill (2017) BDRip
  • Снайпер: Идеальное убийство / Sniper: Ultimate Kill (2017) BDRip [H.264 / 1080p]
  • Снайпер: Идеальное убийство / Sniper: Ultimate Kill (2017) HDRip [H.264] [MP4|1280x534]


    • Комментарии (0):

      Информация

      Информация

        Посетители, находящиеся в группе Гости, не могут оставлять комментарии в данной новости.

        ↓ Меню




        ↓ Опрос

        Вы добавили сайт в закладки?
        Да
        Нет


        Top 10 за месяц (КПК и мобильные)