.
Авторизация | Регистрация
Хочешь лучшие торренты? Добавь свой email!
Добавить

Торрент скачать бесплатно

» » Снайпер: Идеальное убийство / Sniper: Ultimate Kill (2017) HDRip [H.264] [MP4|1280x534] торрент скачать бесплатно




    Снайпер: Идеальное убийство / Sniper: Ultimate Kill (2017) HDRip [H.264] [MP4|1280x534] торрент скачать бесплатно

    Опубликовал: Админ | Дата: 9-10-2017, 05:00 | Просмотров: 0

    Производство: США, Destination Films, Mandalay Pictures
    Жанр: Боевик, Триллер, Драма
    Режиссер: Клаудио Фах
    Продюсер: Дэвид Зелон, Камило Буендия, Андрес Кальдерон
    Актеры: Билли Зейн, Том Беренджер, Денай Гарсиа, Джо Ландо, Хуан Себастьян Калеро, Чад Коллинз, Хуан Пабло Гамбоа, Фелипе Калеро, Лучо Веласко

    Описание

    Глава колумбийского наркокартеля объединят в своих руках все каналы доставки наркотиков в США. Его врагов уничтожает суперснайпер по кличке Дьявол. Агентство по борьбе с наркотиками отправляет на борьбу с ними спецагента под прикрытием, опытного снайпера из морской разведки.

    Рейтинг MPAA: R (лицам до 17 лет обязательно присутствие взрослого)
    Дата мировой премьеры: 3 октября 2017
    Продолжительность: 01: 33: 18
    Качество видео: HDRip
    Перевод: Многоголосый закадровый, профессиональный (Лицензия BD EUR)
    Субтитры: отсутствуют
    Видео: AVC/H.264, 1280x534, ~1177 Kbps
    Аудио: AAC, 2 ch, ~192 Kbps

    Общее
    Полное имя : E: \Download\Snajper 2017 720p.mp4
    Формат : MPEG-4
    Профиль формата : Base Media/Version 2
    Идентификатор кодека : mp42 (isom/mp42)
    Размер файла : 916 Мбайт
    Продолжительность : 1 ч. 33 м.
    Режим общего битрейта : Переменный
    Общий поток : 1372 Кбит/сек
    Дата кодирования : UTC 2017-10-07 16: 37: 38
    Дата пометки : UTC 2017-10-07 16: 37: 38
    gsst : 0
    gstd : 5598561
    Видео
    Идентификатор : 1
    Формат : AVC
    Формат/Информация : Advanced Video Codec
    Профиль формата : High@L3.1
    Настройки формата : CABAC/1 Ref Frames
    Параметр CABAC формата : Да
    Параметр RefFrames формата : 1 кадр
    Параметр GOP формата : M=1, N=60
    Идентификатор кодека : avc1
    Идентификатор кодека/Информация : Advanced Video Coding
    Продолжительность : 1 ч. 33 м.
    Битрейт : 1177 Кбит/сек
    Максимальный битрейт : 5438 Кбит/сек
    Ширина : 1280 пикселей
    Высота : 534 пикселя
    Соотношение сторон : 2, 40: 1
    Режим частоты кадров : Постоянный
    Частота кадров : 23, 976 (24000/1001) кадра/сек
    Цветовое пространство : YUV
    Субдискретизация насыщенности : 4: 2: 0
    Битовая глубина : 8 бит
    Тип развёртки : Прогрессивная
    Бит/(Пиксели*Кадры) : 0.072
    Размер потока : 786 Мбайт (86%)
    Дата пометки : UTC 2017-10-07 16: 38: 30
    Цветовой диапазон : Limited
    Основные цвета : BT.709
    Характеристики трансфера : BT.709
    Коэффициенты матрицы : BT.709
    Аудио
    Идентификатор : 2
    Формат : AAC
    Формат/Информация : Advanced Audio Codec
    Профиль формата : LC
    Идентификатор кодека : mp4a-40-2
    Продолжительность : 1 ч. 33 м.
    Вид битрейта : Переменный
    Битрейт : 192 Кбит/сек
    Максимальный битрейт : 202 Кбит/сек
    Каналы : 2 канала
    Расположение каналов : Front: L R
    Частота : 44, 1 КГц
    Частота кадров : 43, 066 кадра/сек (1024 SPF)
    Метод сжатия : С потерями
    Размер потока : 128 Мбайт (14%)
    Заголовок : IsoMedia File Produced by Google, 5-11-2011
    Язык : Russian
    Дата кодирования : UTC 2017-10-07 16: 38: 09
    Дата пометки : UTC 2017-10-07 16: 38: 30
    Скриншоты:


    Все одноименные релизы в Клубе
    Время раздачи: с 11: 00 до 23: 00 (до появления первых 3-5 скачавших)

    Снайпер: Идеальное убийство/Sniper: Ultimate Kill (2017) HDRip [H.264] [MP4|1280x534]
    загрузка...
    Рейтинг →
     (голосов: 1, оценка 5/5, голосовать можно 1 раз )

    Другие торренты по теме:

  • Снайпер: Идеальное убийство / Sniper: Ultimate Kill (2017) WEB-DLRip [H.264 / 720p-LQ] [Line] [AD]
  • Снайпер: Идеальное убийство / Sniper: Ultimate Kill (2017) WEB-DLRip [H.264 / 1080p-LQ] [Line] [AD]
  • Снайпер: Идеальное убийство / Sniper: Ultimate Kill (2017) WEB-DLRip [Line] [AD]
  • Снайпер: Идеальное убийство / Sniper: Ultimate Kill (2017) BDRip [H.264 / 720p]
  • Снайпер: Идеальное убийство / Sniper: Ultimate Kill (2017) Blu-ray [H.264 / 1080p]
  • Снайпер: Идеальное убийство / Sniper: Ultimate Kill (2017) BDRip
  • Снайпер: Идеальное убийство / Sniper: Ultimate Kill (2017) BDRip [H.264 / 1080p]
  • Снайпер: Идеальное убийство / Sniper: Ultimate Kill (2017) HDRip [H.264] [MP4|1920x800]


    • Комментарии (0):

      Информация

      Информация

        Посетители, находящиеся в группе Гости, не могут оставлять комментарии в данной новости.

        ↓ Меню




        ↓ Опрос

        Вы добавили сайт в закладки?
        Да
        Нет


        Top 10 за месяц (КПК и мобильные)