.
Авторизация | Регистрация
Хочешь лучшие торренты? Добавь свой email!
Добавить

Торрент скачать бесплатно

» » Мумия / The Mummy (2017) HDRip [H.264] [MP4|1920x800] торрент скачать бесплатно




    Мумия / The Mummy (2017) HDRip [H.264] [MP4|1920x800] торрент скачать бесплатно

    Опубликовал: Админ | Дата: 8-10-2017, 05:00 | Просмотров: 0

    Производство: США/Universal Pictures
    Жанр: Фэнтези, Боевик, Триллер, Приключения
    Режиссер: Алекс Куртцман
    Продюсер: Сара Брэдшоу, Джеб Броди, Шон Дэниэл
    Актеры: Том Круз, Расселл Кроу, Аннабелль Уоллис, София Бутелла, Джейк Джонсон, Кортни Б. Вэнс, Марван Кензари, Саймон Атертон

    Описание

    Посреди безжалостной пустыни в величественном саркофаге погребена дочь египетского фараона, но настанет день, и она явится в наш мир вернуть себе то, что принадлежит ей по праву. Отныне миром правят боги и монстры.

    Возраст: 16+ (зрителям, достигшим 16 лет)
    Рейтинг MPAA: PG-13 (детям до 13 лет просмотр нежелателен)
    Дата мировой премьеры: 22 мая 2017
    Дата российской премьеры: 8 июня 2017, UPI
    Продолжительность: 01: 50: 05
    Качество видео: HDRip
    Перевод: Дублированный
    Субтитры: отсутствуют
    Видео: AVC/H.264, 1920x800, ~2047 Kbps
    Аудио: AAC, 2 ch, 126 Kbps

    Общее
    Полное имя : E: \Download\Mumiya 2017 1080p.mp4
    Формат : MPEG-4
    Профиль формата : Base Media
    Идентификатор кодека : isom (isom/iso2/avc1/mp41)
    Размер файла : 1, 68 Гбайт
    Продолжительность : 1 ч. 50 м.
    Общий поток : 2179 Кбит/сек
    Программа кодирования : Lavf57.56.101
    Видео
    Идентификатор : 1
    Формат : AVC
    Формат/Информация : Advanced Video Codec
    Профиль формата : High@L4
    Настройки формата : CABAC/2 Ref Frames
    Параметр CABAC формата : Да
    Параметр RefFrames формата : 2 кадра
    Идентификатор кодека : avc1
    Идентификатор кодека/Информация : Advanced Video Coding
    Продолжительность : 1 ч. 50 м.
    Битрейт : 2047 Кбит/сек
    Ширина : 1920 пикселей
    Высота : 800 пикселей
    Соотношение сторон : 2, 40: 1
    Режим частоты кадров : Переменный
    Частота кадров : 23, 976 (24000/1001) кадра/сек
    Минимальная частота кадров : 23, 974 кадра/сек
    Максимальная частота кадров : 23, 981 кадра/сек
    Цветовое пространство : YUV
    Субдискретизация насыщенности : 4: 2: 0
    Битовая глубина : 8 бит
    Тип развёртки : Прогрессивная
    Бит/(Пиксели*Кадры) : 0.056
    Размер потока : 1, 57 Гбайт (94%)
    Цветовой диапазон : Limited
    Основные цвета : BT.709
    Характеристики трансфера : BT.709
    Коэффициенты матрицы : BT.709
    Аудио
    Идентификатор : 2
    Формат : AAC
    Формат/Информация : Advanced Audio Codec
    Профиль формата : LC
    Идентификатор кодека : mp4a-40-2
    Продолжительность : 1 ч. 50 м.
    Вид битрейта : Постоянный
    Битрейт : 126 Кбит/сек
    Каналы : 2 канала
    Расположение каналов : Front: L R
    Частота : 44, 1 КГц
    Частота кадров : 43, 066 кадра/сек (1024 SPF)
    Метод сжатия : С потерями
    Размер потока : 98, 9 Мбайт (6%)
    Default : Да
    AlternateGroup/String : 1
    Скриншоты:


    Все одноименные релизы в Клубе
    Время раздачи: с 11: 00 до 23: 00 (до появления первых 3-5 скачавших)

    Мумия/The Mummy (2017) HDRip [H.264] [MP4|1920x800]
    загрузка...
    Рейтинг →
     (голосов: 1, оценка 5/5, голосовать можно 1 раз )

    Другие торренты по теме:

  • Мумия: Принц Египта / Tale of the Mummy (1998) HDRip [H.264] [MVO]
  • Мумия / The Mummy (1959) BDRip [H.264 / 1080p] скачать через торрент бесплатно
  • Мумия, пришедшая с холода / Mummy, came in from the cold (2007) IPTVRip скачать через торрент бесплатно
  • Мумия: Воскрешение / The Mummy Resurrected (2014) BDRip [H.264 / 1080] [VO] скачать через торрент бесплатно
  • Мумия возвращается / The Mummy Returns (2001) HD-DVDRip [H.264 / 1080p]
  • Мумия / The Mummy (2017) WEBRip [H.264 / 1080p] [Трейлер]
  • Мумия / The Mummy (1999, 2001) HDDVDRemux [VC-1 / 1080p] [Дилогия]
  • Мумия / The Mummy (2017) WEBRip [H.264 / 1080p-LQ] [Звук с TS] [AD]


    • Комментарии (0):

      Информация

      Информация

        Посетители, находящиеся в группе Гости, не могут оставлять комментарии в данной новости.

        ↓ Меню




        ↓ Опрос

        Вы добавили сайт в закладки?
        Да
        Нет


        Top 10 за месяц (КПК и мобильные)