.
Авторизация | Регистрация
Хочешь лучшие торренты? Добавь свой email!
Добавить

Торрент скачать бесплатно

» » Стражи Галактики. Часть 2 / Guardians of the Galaxy Vol. 2 (2017) HDRip [H.264] [MP4|1280x536] торрент скачать бесплатно




    Стражи Галактики. Часть 2 / Guardians of the Galaxy Vol. 2 (2017) HDRip [H.264] [MP4|1280x536] торрент скачать бесплатно

    Опубликовал: Админ | Дата: 8-10-2017, 05:00 | Просмотров: 0

    Производство: США/Marvel Studios Inc.
    Жанр: Фантастика, Боевик, Приключения
    Режиссер: Джеймс Ганн
    Продюсер: Виктория Алонсо, Луис Д’Эспозито, Кевин Файги
    Актеры: Крис Пратт, Зои Салдана, Дэйв Батиста, Вин Дизель, Брэдли Купер, Майкл Рукер, Карен Гиллан, Пом Клементьефф, Элизабет Дебики, Курт Рассел

    Описание

    Все в сборе: землянин Питер Квилл (Звездный Лорд), молчаливый громила Дракс, зеленокожая наемница Гамора, живое дерево Грут и говорящий енот. Герои не изменяют себе и с завидной регулярностью продолжают попадать в немыслимые ситуации, выпутываясь из них почти без ущерба (а иногда даже с пользой) для окружающих. На этот раз им предстоит раскрыть одну из самых главных тайн во всей Галактике: кто же на самом деле отец Питера Квилла?

    Возраст: 16+ (зрителям, достигшим 16 лет)
    Рейтинг MPAA: PG-13 (детям до 13 лет просмотр нежелателен)
    Дата мировой премьеры: 19 апреля 2017
    Дата российской премьеры: 4 мая 2017
    Дата выхода DVD/Blu-ray релиза: 5 сентября 2017, Уолт Дисней Компани СНГ
    Продолжительность: 02: 15: 46
    Качество видео: HDRip
    Перевод: Дублированный (iTunes)
    Субтитры: отсутствуют
    Видео: AVC/H.264, 1280x536, ~1354 Kbps
    Аудио: AAC, 2 ch, ~192 kbps
    Общее
    Полное имя : E: \Download\Стражи Галактики Часть 2 2017 720p.mp4
    Формат : MPEG-4
    Профиль формата : Base Media/Version 2
    Идентификатор кодека : mp42 (isom/mp42)
    Размер файла : 1, 47 Гбайт
    Продолжительность : 2 ч. 15 м.
    Режим общего битрейта : Переменный
    Общий поток : 1548 Кбит/сек
    Дата кодирования : UTC 2017-10-03 16: 55: 39
    Дата пометки : UTC 2017-10-03 16: 55: 39
    gsst : 0
    gstd : 8146233
    Видео
    Идентификатор : 1
    Формат : AVC
    Формат/Информация : Advanced Video Codec
    Профиль формата : High@L3.1
    Настройки формата : CABAC/1 Ref Frames
    Параметр CABAC формата : Да
    Параметр RefFrames формата : 1 кадр
    Идентификатор кодека : avc1
    Идентификатор кодека/Информация : Advanced Video Coding
    Продолжительность : 2 ч. 15 м.
    Битрейт : 1354 Кбит/сек
    Максимальный битрейт : 10, 7 Мбит/сек
    Ширина : 1280 пикселей
    Высота : 536 пикселей
    Соотношение сторон : 2, 40: 1
    Режим частоты кадров : Постоянный
    Частота кадров : 23, 976 (24000/1001) кадра/сек
    Цветовое пространство : YUV
    Субдискретизация насыщенности : 4: 2: 0
    Битовая глубина : 8 бит
    Тип развёртки : Прогрессивная
    Бит/(Пиксели*Кадры) : 0.082
    Размер потока : 1, 28 Гбайт (87%)
    Дата пометки : UTC 2017-10-03 16: 56: 44
    Цветовой диапазон : Limited
    Основные цвета : BT.709
    Характеристики трансфера : BT.709
    Коэффициенты матрицы : BT.709
    Аудио
    Идентификатор : 2
    Формат : AAC
    Формат/Информация : Advanced Audio Codec
    Профиль формата : LC
    Идентификатор кодека : mp4a-40-2
    Продолжительность : 2 ч. 15 м.
    Вид битрейта : Переменный
    Битрейт : 192 Кбит/сек
    Максимальный битрейт : 202 Кбит/сек
    Каналы : 2 канала
    Расположение каналов : Front: L R
    Частота : 44, 1 КГц
    Частота кадров : 43, 066 кадра/сек (1024 SPF)
    Метод сжатия : С потерями
    Размер потока : 186 Мбайт (12%)
    Заголовок : IsoMedia File Produced by Google, 5-11-2011
    Язык : Russian
    Дата кодирования : UTC 2017-10-03 16: 56: 18
    Дата пометки : UTC 2017-10-03 16: 56: 44
    Скриншоты:


    Все одноименные релизы в Клубе
    Время раздачи: с 11: 00 до 23: 00 (до появления первых 3-5 скачавших)

    Стражи Галактики. Часть 2/Guardians of the Galaxy Vol. 2 (2017) HDRip [H.264] [MP4|1280x536]
    загрузка...
    Рейтинг →
     (голосов: 1, оценка 5/5, голосовать можно 1 раз )

    Другие торренты по теме:

  • Стражи Галактики / Guardians of the Galaxy (2014) CamRip
  • Стражи Галактики / Guardians of the Galaxy (2014) CamRip
  • Стражи Галактики / Guardians of the Galaxy (2014) Telecine [H.264 / 720p-LQ] [звук с TS] скачать через торрент бесплатно
  • Стражи Галактики / Guardians of the Galaxy (2014) Telecine [H.264 / 720p-LQ] [звук с TS] скачать через торрент бесплатно
  • Стражи Галактики / Guardians of the Galaxy (2014) Telecine [Звук с TS] скачать через торрент бесплатно
  • Стражи Галактики / Guardians of the Galaxy (2014) Telecine [Звук с TS] скачать через торрент бесплатно
  • Стражи Галактики / Guardians of the Galaxy (2014) Telecine [звук с TS] скачать через торрент бесплатно
  • Стражи Галактики / Guardians of the Galaxy (2014) Telecine [звук с TS] скачать через торрент бесплатно


    • Комментарии (0):

      Информация

      Информация

        Посетители, находящиеся в группе Гости, не могут оставлять комментарии в данной новости.

        ↓ Меню




        ↓ Опрос

        Вы добавили сайт в закладки?
        Да
        Нет


        Top 10 за месяц (КПК и мобильные)