.
Авторизация | Регистрация
Хочешь лучшие торренты? Добавь свой email!
Добавить

Торрент скачать бесплатно

» » Мумия / The Mummy (2017) HDRip [H.264] [MP4|1280x534] торрент скачать бесплатно




    Мумия / The Mummy (2017) HDRip [H.264] [MP4|1280x534] торрент скачать бесплатно

    Опубликовал: Админ | Дата: 8-10-2017, 05:00 | Просмотров: 0

    Производство: США/Universal Pictures
    Жанр: Фэнтези, Боевик, Триллер, Приключения
    Режиссер: Алекс Куртцман
    Продюсер: Сара Брэдшоу, Джеб Броди, Шон Дэниэл
    Актеры: Том Круз, Расселл Кроу, Аннабелль Уоллис, София Бутелла, Джейк Джонсон, Кортни Б. Вэнс, Марван Кензари, Саймон Атертон

    Описание

    Посреди безжалостной пустыни в величественном саркофаге погребена дочь египетского фараона, но настанет день, и она явится в наш мир вернуть себе то, что принадлежит ей по праву. Отныне миром правят боги и монстры.

    Возраст: 16+ (зрителям, достигшим 16 лет)
    Рейтинг MPAA: PG-13 (детям до 13 лет просмотр нежелателен)
    Дата мировой премьеры: 22 мая 2017
    Дата российской премьеры: 8 июня 2017, UPI
    Продолжительность: 01: 50: 05
    Качество видео: HDRip
    Перевод: Дублированный
    Субтитры: отсутствуют
    Видео: AVC/H.264, 1280x534, ~1109 Kbps
    Аудио: AAC, 2 ch, ~192 Kbps

    Общее
    Полное имя : E: \Download\Mumiya 2017 720p.mp4
    Формат : MPEG-4
    Профиль формата : Base Media/Version 2
    Идентификатор кодека : mp42 (isom/mp42)
    Размер файла : 1, 00 Гбайт
    Продолжительность : 1 ч. 50 м.
    Режим общего битрейта : Переменный
    Общий поток : 1304 Кбит/сек
    Дата кодирования : UTC 2017-10-03 17: 12: 39
    Дата пометки : UTC 2017-10-03 17: 12: 39
    gsst : 0
    gstd : 6605751
    Видео
    Идентификатор : 1
    Формат : AVC
    Формат/Информация : Advanced Video Codec
    Профиль формата : High@L3.1
    Настройки формата : CABAC/1 Ref Frames
    Параметр CABAC формата : Да
    Параметр RefFrames формата : 1 кадр
    Параметр GOP формата : M=1, N=60
    Идентификатор кодека : avc1
    Идентификатор кодека/Информация : Advanced Video Coding
    Продолжительность : 1 ч. 50 м.
    Битрейт : 1109 Кбит/сек
    Максимальный битрейт : 6094 Кбит/сек
    Ширина : 1280 пикселей
    Высота : 534 пикселя
    Соотношение сторон : 2, 40: 1
    Режим частоты кадров : Постоянный
    Частота кадров : 23, 976 (24000/1001) кадра/сек
    Цветовое пространство : YUV
    Субдискретизация насыщенности : 4: 2: 0
    Битовая глубина : 8 бит
    Тип развёртки : Прогрессивная
    Бит/(Пиксели*Кадры) : 0.068
    Размер потока : 873 Мбайт (85%)
    Дата пометки : UTC 2017-10-03 17: 13: 16
    Цветовой диапазон : Limited
    Основные цвета : BT.709
    Характеристики трансфера : BT.709
    Коэффициенты матрицы : BT.709
    Аудио
    Идентификатор : 2
    Формат : AAC
    Формат/Информация : Advanced Audio Codec
    Профиль формата : LC
    Идентификатор кодека : mp4a-40-2
    Продолжительность : 1 ч. 50 м.
    Вид битрейта : Переменный
    Битрейт : 192 Кбит/сек
    Максимальный битрейт : 201 Кбит/сек
    Каналы : 2 канала
    Расположение каналов : Front: L R
    Частота : 44, 1 КГц
    Частота кадров : 43, 066 кадра/сек (1024 SPF)
    Метод сжатия : С потерями
    Размер потока : 151 Мбайт (15%)
    Заголовок : IsoMedia File Produced by Google, 5-11-2011
    Язык : Russian
    Дата кодирования : UTC 2017-10-03 17: 12: 58
    Дата пометки : UTC 2017-10-03 17: 13: 16
    Скриншоты:


    Все одноименные релизы в Клубе
    Время раздачи: с 11: 00 до 23: 00 (до появления первых 3-5 скачавших)

    Мумия/The Mummy (2017) HDRip [H.264] [MP4|1280x534]
    загрузка...
    Рейтинг →
     (голосов: 1, оценка 4/5, голосовать можно 1 раз )

    Другие торренты по теме:

  • Мумия / The Mummy (1959) BDRip [H.264 / 1080p] скачать через торрент бесплатно
  • Мумия, пришедшая с холода / Mummy, came in from the cold (2007) IPTVRip скачать через торрент бесплатно
  • Мумия: Воскрешение / The Mummy Resurrected (2014) BDRip [H.264 / 1080] [VO] скачать через торрент бесплатно
  • Мумия возвращается / The Mummy Returns (2001) HD-DVDRip [H.264 / 1080p]
  • Мумия / The Mummy (2017) WEBRip [H.264 / 1080p] [Трейлер]
  • Мумия / The Mummy (1999, 2001) HDDVDRemux [VC-1 / 1080p] [Дилогия]
  • Мумия / The Mummy (2017) WEBRip [H.264 / 1080p-LQ] [Звук с TS] [AD]
  • Мумия / The Mummy (2017) WEBRip [H.264 / 720p-LQ] [Звук с TS] [AD]


    • Комментарии (0):

      Информация

      Информация

        Посетители, находящиеся в группе Гости, не могут оставлять комментарии в данной новости.

        ↓ Меню




        ↓ Опрос

        Вы добавили сайт в закладки?
        Да
        Нет


        Top 10 за месяц (КПК и мобильные)