.
Авторизация | Регистрация
Хочешь лучшие торренты? Добавь свой email!
Добавить

Торрент скачать бесплатно

» » Человек-паук: Возвращение домой / Spider-Man: Homecoming (2017) HDRip [H.264] [MP4|1280x534] торрент скачать бесплатно




    Человек-паук: Возвращение домой / Spider-Man: Homecoming (2017) HDRip [H.264] [MP4|1280x534] торрент скачать бесплатно

    Опубликовал: Админ | Дата: 8-10-2017, 05:00 | Просмотров: 0

    Производство: США/Columbia Pictures
    Жанр: Фантастика, Боевик, Приключения
    Режиссер: Джон Уоттс
    Продюсер: Виктория Алонсо, Ави Арад, Митчелл Белл
    Актеры: Том Холланд, Роберт Дауни мл., Майкл Китон, Мариса Томей, Джон Фавро, Джейкоб Баталон, Зендея, Лора Хэрриер, Тони Револори, Дональд Гловер, Гвинет Пэлтроу, Боким Вудбайн, Тайн Дейли, Абрам Атта, Хэннибал Бёресс, Кеннет Чои

    Описание

    После исторической встречи с командой Мстителей Питер Паркер возвращается домой, стараясь зажить обычной жизнью под опекой своей тёти Мэй. Но теперь за Питером приглядывает ещё кое-что… Тони Старк видел Человека-Паука в деле и должен стать его наставником. Когда новый злодей Стервятник угрожает уничтожить всё, что дорого Питеру, приходит время доказать всем, что такое настоящий супергерой.

    Возраст: 16+ (зрителям, достигшим 16 лет)
    Рейтинг MPAA: PG-13 (детям до 13 лет просмотр нежелателен)
    Дата мировой премьеры: 28 июня 2017
    Дата российской премьеры: 6 июля 2017, WDSSPR 3D
    Продолжительность: 02: 13: 28
    Качество видео: HDRip
    Перевод: Дублированный (iTunes)
    Субтитры: отсутствуют
    Видео: AVC/H.264, 1280x534, ~1135 Kbps
    Аудио: AAC, 2 ch, ~192 Kbps

    Общее
    Полное имя : E: \Download\Spider Man Homecoming 2017 720p.mp4
    Формат : MPEG-4
    Профиль формата : Base Media/Version 2
    Идентификатор кодека : mp42 (isom/mp42)
    Размер файла : 1, 24 Гбайт
    Продолжительность : 2 ч. 13 м.
    Режим общего битрейта : Переменный
    Общий поток : 1329 Кбит/сек
    Дата кодирования : UTC 2017-10-06 11: 33: 55
    Дата пометки : UTC 2017-10-06 11: 33: 55
    gsst : 0
    gstd : 8008050
    Видео
    Идентификатор : 1
    Формат : AVC
    Формат/Информация : Advanced Video Codec
    Профиль формата : High@L3.1
    Настройки формата : CABAC/1 Ref Frames
    Параметр CABAC формата : Да
    Параметр RefFrames формата : 1 кадр
    Параметр GOP формата : M=1, N=60
    Идентификатор кодека : avc1
    Идентификатор кодека/Информация : Advanced Video Coding
    Продолжительность : 2 ч. 13 м.
    Битрейт : 1135 Кбит/сек
    Максимальный битрейт : 6257 Кбит/сек
    Ширина : 1280 пикселей
    Высота : 534 пикселя
    Соотношение сторон : 2, 40: 1
    Режим частоты кадров : Постоянный
    Частота кадров : 23, 976 (24000/1001) кадра/сек
    Цветовое пространство : YUV
    Субдискретизация насыщенности : 4: 2: 0
    Битовая глубина : 8 бит
    Тип развёртки : Прогрессивная
    Бит/(Пиксели*Кадры) : 0.069
    Размер потока : 1, 06 Гбайт (85%)
    Дата пометки : UTC 2017-10-06 11: 34: 46
    Цветовой диапазон : Limited
    Основные цвета : BT.709
    Характеристики трансфера : BT.709
    Коэффициенты матрицы : BT.709
    Аудио
    Идентификатор : 2
    Формат : AAC
    Формат/Информация : Advanced Audio Codec
    Профиль формата : LC
    Идентификатор кодека : mp4a-40-2
    Продолжительность : 2 ч. 13 м.
    Вид битрейта : Переменный
    Битрейт : 192 Кбит/сек
    Максимальный битрейт : 201 Кбит/сек
    Каналы : 2 канала
    Расположение каналов : Front: L R
    Частота : 44, 1 КГц
    Частота кадров : 43, 066 кадра/сек (1024 SPF)
    Метод сжатия : С потерями
    Размер потока : 183 Мбайт (14%)
    Заголовок : IsoMedia File Produced by Google, 5-11-2011
    Язык : Russian
    Дата кодирования : UTC 2017-10-06 11: 34: 26
    Дата пометки : UTC 2017-10-06 11: 34: 46
    Скриншоты:


    Все одноименные релизы в Клубе
    Время раздачи: с 11: 00 до 23: 00 (до появления первых 3-5 скачавших)

    Человек-паук: Возвращение домой/Spider-Man: Homecoming (2017) HDRip [H.264] [MP4|1280x534]
    загрузка...
    Рейтинг →
     (голосов: 1, оценка 5/5, голосовать можно 1 раз )

    Другие торренты по теме:

  • Человек-паук: Возвращение домой / Spider-Man: Homecoming (2017) WEBRip [H.264 / 1080p] [Трейлер]
  • Человек-паук: Возвращение домой / Spider-Man: Homecoming (2017) CAMRip [AD]
  • Человек-паук: Возвращение домой / Spider-Man: Homecoming (2017) CamRip [AD]
  • Человек-паук: Возвращение домой / Spider-Man: Homecoming (2017) TS [H.264 / 720p-LQ] [Звук с TS] [AD]
  • Человек-паук: Возвращение домой / Spider-Man: Homecoming (2017) WEB-DLRip [H.264 / 720p-LQ] [AD]
  • Человек-паук: Возвращение домой / Spider-Man: Homecoming (2017) WEB-DLRip [H.264 / 1080p-LQ] [Line] [AD]
  • Человек-паук: Возвращение домой / Spider-Man: Homecoming (2017) WEB-DLRip
  • Человек-паук: Возвращение домой / Spider-Man: Homecoming (2017) WEB-DL [H.264 / 1080p-LQ]


    • Комментарии (0):

      Информация

      Информация

        Посетители, находящиеся в группе Гости, не могут оставлять комментарии в данной новости.

        ↓ Меню




        ↓ Опрос

        Вы добавили сайт в закладки?
        Да
        Нет


        Top 10 за месяц (КПК и мобильные)